<?xml version="1.0" standalone="no"?>
<!DOCTYPE svg PUBLIC "-//W3C//DTD SVG 1.1//EN" "http://www.w3.org/Graphics/SVG/1.1/DTD/svg11.dtd" >
<svg xmlns="http://www.w3.org/2000/svg" xmlns:xlink="http://www.w3.org/1999/xlink" version="1.1">
<metadata>
Created by FontForge 20200314 at Wed Sep 10 01:30:13 2014
 By Unknown
Copyright (c) 2009 Typodermic Fonts. This font is not freely distributable. Visit typodermic.com for more info.
</metadata>
<defs>
<font id="UniwarsW00-Regular" horiz-adv-x="972" >
  <font-face 
    font-family="UniwarsW00-Regular"
    font-weight="400"
    font-stretch="normal"
    units-per-em="1000"
    panose-1="2 11 5 3 4 0 0 2 0 4"
    ascent="800"
    descent="-200"
    x-height="677"
    cap-height="677"
    bbox="-252 -276 1840 924"
    underline-thickness="50"
    underline-position="-175"
    unicode-range="U+0017-F8FF"
  />
<missing-glyph horiz-adv-x="657" 
d="M45 0v677h567v-677h-567zM504 576h-348v-472h348v472z" />
    <glyph glyph-name="copyright" unicode="&#x28;C&#x29;" horiz-adv-x="820" 
d="M762 338q0 -72 -27.5 -136t-75.5 -112t-112.5 -76t-137.5 -28t-137 28t-112 76t-75.5 112t-27.5 136q0 73 27.5 137.5t75.5 112.5t112 75.5t137 27.5t137.5 -27.5t112.5 -75.5t75.5 -112.5t27.5 -137.5zM708 338q0 61 -23.5 115.5t-64 95t-95 64t-116.5 23.5t-116 -23.5
t-94.5 -64t-64 -95t-23.5 -115.5q0 -62 23.5 -116.5t64 -95t94.5 -64t116 -23.5t116.5 23.5t95 64t64 95t23.5 116.5zM355 187q-51 0 -75 25t-24 76v109q0 51 24 76t75 25h176v-54h-165q-52 0 -52 -53v-97q0 -53 52 -53h165v-54h-176z" />
    <glyph glyph-name="registered" unicode="&#x28;R&#x29;" horiz-adv-x="563" 
d="M281 243q-47 0 -87.5 17.5t-71 48t-48 71.5t-17.5 88q0 46 17.5 86.5t48 71t71 48t87.5 17.5q46 0 87 -17.5t71.5 -48t48 -71t17.5 -86.5q0 -47 -17.5 -88t-48 -71.5t-71.5 -48t-87 -17.5zM281 278q39 0 73 15t59.5 40.5t40.5 60.5t15 74t-15 73t-40.5 59.5t-59.5 40
t-73 14.5t-73.5 -14.5t-60 -40t-40 -59.5t-14.5 -73t14.5 -74t40 -60.5t60 -40.5t73.5 -15zM346 368q-5 3 -5 14v34q0 13 -9.5 18t-23.5 5h-76v-71h-38v196h126q32 0 44 -12.5t12 -39.5v-24q0 -14 -7.5 -21.5t-18.5 -10.5q12 -3 20.5 -11.5t8.5 -28.5v-34q0 -9 5 -14h-38z
M338 510q0 21 -22 21h-84v-63h75q14 0 22.5 4.5t8.5 18.5v19z" />
    <glyph glyph-name="uni2117" unicode="&#x28;P&#x29;" horiz-adv-x="820" 
d="M762 338q0 -73 -27.5 -137t-75.5 -112t-112.5 -75.5t-137.5 -27.5t-137 27.5t-112 75.5t-75.5 112t-27.5 137t27.5 137.5t75.5 112.5t112 75.5t137 27.5t137.5 -27.5t112.5 -75.5t75.5 -112.5t27.5 -137.5zM708 338q0 62 -23.5 116.5t-64 95t-95 63.5t-116.5 23t-116 -23
t-94.5 -63.5t-64 -95t-23.5 -116.5t23.5 -116t64 -95t94.5 -64.5t116 -23.5t116.5 23.5t95 64.5t64 95t23.5 116zM333 263v-83h-60v317h229q43 0 60 -18.5t17 -52.5v-85q0 -42 -17 -60t-60 -18h-169zM520 408q0 17 -9 26.5t-31 9.5h-147v-132h147q22 0 31 9t9 31v56z" />
    <glyph glyph-name=".notdef" horiz-adv-x="657" 
d="M45 0v677h567v-677h-567zM504 576h-348v-472h348v472z" />
    <glyph glyph-name=".null" horiz-adv-x="0" 
 />
    <glyph glyph-name="nonmarkingreturn" horiz-adv-x="333" 
 />
    <glyph glyph-name="glyph390" horiz-adv-x="237" 
 />
    <glyph glyph-name="glyph390" horiz-adv-x="237" 
 />
    <glyph glyph-name="uni0017" horiz-adv-x="230" 
 />
    <glyph glyph-name="space" unicode=" " horiz-adv-x="367" 
 />
    <glyph glyph-name="exclam" unicode="!" horiz-adv-x="288" 
d="M87 0v178h116v-178h-116zM94 233l-24 444h148l-24 -444h-100z" />
    <glyph glyph-name="quotedbl" unicode="&#x22;" horiz-adv-x="397" 
d="M271 368l-13 309h81l-12 -309h-56zM70 368l-13 309h82l-13 -309h-56z" />
    <glyph glyph-name="numbersign" unicode="#" horiz-adv-x="620" 
d="M335 0l32 195h-145l-30 -195h-66l31 195h-100v53h108l29 185h-113v53h121l32 191h65l-32 -191h145l30 191h66l-30 -191h84v-53h-93l-29 -185h99v-53h-107l-31 -195h-66zM403 433h-143l-29 -185h143z" />
    <glyph glyph-name="dollar" unicode="$" horiz-adv-x="659" 
d="M371 64v-64h-50v64h-264v83h397q34 0 47.5 16.5t13.5 47.5v26q0 31 -13.5 47.5t-47.5 16.5h-272q-69 0 -97 31.5t-28 92.5v63q0 60 28 92.5t97 32.5h139v64h50v-64h218v-83h-384q-33 0 -47 -16.5t-14 -48.5v-21q0 -32 14 -48.5t47 -16.5h272q70 0 97.5 -31.5t27.5 -92.5
v-67q0 -60 -27.5 -92t-97.5 -32h-106z" />
    <glyph glyph-name="percent" unicode="%" horiz-adv-x="1028" 
d="M152 349q-103 0 -103 110v118q0 110 103 110h215q54 0 78 -26.5t24 -83.5v-118q0 -57 -24 -83.5t-78 -26.5h-215zM409 571q0 61 -54 61h-191q-54 0 -54 -61v-106q0 -61 54 -61h191q54 0 54 61v106zM187 -31l588 743h67l-589 -743h-66zM661 -10q-103 0 -103 110v118
q0 110 103 110h215q54 0 78 -26.5t24 -83.5v-118q0 -57 -24 -83.5t-78 -26.5h-215zM918 212q0 61 -54 61h-191q-54 0 -54 -61v-106q0 -61 54 -61h191q54 0 54 61v106z" />
    <glyph glyph-name="ampersand" unicode="&#x26;" horiz-adv-x="849" 
d="M204 0q-86 0 -120.5 39.5t-34.5 113.5v57q0 41 11.5 66.5t28.5 39.5t37.5 20t37.5 8q-16 1 -34 6.5t-33.5 20t-26 41t-10.5 69.5v43q0 75 34.5 114t119.5 39h266v-101h-223q-42 0 -59.5 -20.5t-17.5 -59.5v-27q0 -45 24 -63.5t62 -18.5h535v-387h-597zM685 293h-424
q-42 0 -66.5 -17.5t-24.5 -60.5v-33q0 -40 17.5 -60.5t59.5 -20.5h438v192z" />
    <glyph glyph-name="quotesingle" unicode="'" horiz-adv-x="195" 
d="M70 368l-13 309h82l-13 -309h-56z" />
    <glyph glyph-name="parenleft" unicode="(" horiz-adv-x="382" 
d="M296 -145q-44 17 -81 45t-63.5 71t-41 104t-14.5 144v238q0 83 14.5 143.5t41 103.5t63.5 70.5t81 44.5l29 -52q-79 -32 -119.5 -106t-40.5 -195v-257q0 -121 40.5 -194.5t119.5 -106.5z" />
    <glyph glyph-name="parenright" unicode=")" horiz-adv-x="384" 
d="M58 -92q78 33 118.5 106.5t40.5 194.5v257q0 121 -40.5 195t-119.5 106l30 52q44 -17 80.5 -44.5t63 -70.5t41 -103.5t14.5 -143.5v-238q0 -83 -14.5 -144t-41 -104t-63 -71t-80.5 -45z" />
    <glyph glyph-name="asterisk" unicode="*" horiz-adv-x="518" 
d="M339 314l-80 129l-85 -127l-66 44l103 115l-154 41l26 67l147 -58l-13 152h83l-12 -153l148 58l24 -68l-155 -38l101 -116z" />
    <glyph glyph-name="plus" unicode="+" horiz-adv-x="623" 
d="M278 95v221h-221v67h221v221h68v-221h220v-67h-220v-221h-68z" />
    <glyph glyph-name="comma" unicode="," horiz-adv-x="263" 
d="M57 -90l29 268h120l-65 -268h-84z" />
    <glyph glyph-name="hyphen" unicode="-" horiz-adv-x="371" 
d="M29 295v79h315v-79h-315z" />
    <glyph glyph-name="period" unicode="." horiz-adv-x="230" 
d="M57 0v178h116v-178h-116z" />
    <glyph glyph-name="slash" unicode="/" horiz-adv-x="423" 
d="M12 -27l330 731h69l-329 -731h-70z" />
    <glyph glyph-name="zero" unicode="0" horiz-adv-x="938" 
d="M254 0q-106 0 -155.5 54t-49.5 166v237q0 112 49.5 166t155.5 54h431q106 0 154.5 -54t48.5 -166v-237q0 -112 -48.5 -166t-154.5 -54h-431zM768 445q0 121 -108 121h-381q-57 0 -83 -30t-26 -91v-213q0 -60 26 -90.5t83 -30.5h381q108 0 108 121v213z" />
    <glyph glyph-name="one" unicode="1" horiz-adv-x="403" 
d="M225 0v475q0 91 -90 91h-106v111h131q96 0 140.5 -47.5t44.5 -143.5v-486h-120z" />
    <glyph glyph-name="two" unicode="2" horiz-adv-x="912" 
d="M57 0v229q0 75 34 114.5t120 39.5h450q42 0 59.5 21t17.5 60v32q0 39 -17.5 59.5t-59.5 20.5h-585v101h627q85 0 120 -39t35 -114v-57q0 -37 -8 -69.5t-26.5 -56.5t-48 -38t-72.5 -14h-450q-42 0 -59 -21.5t-17 -59.5v-107h681v-101h-801z" />
    <glyph glyph-name="three" unicode="3" horiz-adv-x="880" 
d="M43 0v101h582q42 0 59.5 20.5t17.5 60.5v37q0 43 -24.5 60.5t-66.5 17.5h-546v93h540q39 0 63 17.5t24 62.5v26q0 39 -17.5 59.5t-59.5 20.5h-570v101h613q85 0 119.5 -39t34.5 -114v-43q0 -43 -10.5 -69.5t-26 -41t-34 -20t-33.5 -6.5q17 -2 37 -8t37 -20.5t28.5 -40
t11.5 -65.5v-57q0 -75 -34.5 -114t-119.5 -39h-625z" />
    <glyph glyph-name="four" unicode="4" horiz-adv-x="876" 
d="M667 0v132h-632v93l588 452h160v-456h65v-89h-65v-132h-116zM667 584l-481 -363h481v363z" />
    <glyph glyph-name="five" unicode="5" horiz-adv-x="912" 
d="M57 0v101h604q42 0 59.5 29t17.5 69v17q0 38 -17.5 59.5t-59.5 21.5h-600v380h779v-101h-666v-185h529q85 0 120 -39.5t35 -114.5v-84q0 -75 -35 -114t-120 -39h-646z" />
    <glyph glyph-name="six" unicode="6" horiz-adv-x="933" 
d="M760 210q0 39 -17.5 59.5t-59.5 20.5h-513v-108q0 -40 18 -60.5t60 -20.5h435q42 0 59.5 20.5t17.5 60.5v28zM205 0q-86 0 -121 39t-35 114v304q0 112 49.5 166t155.5 54h606v-111h-581q-57 0 -83 -30t-26 -91v-61h556q85 0 119.5 -39t34.5 -114v-78q0 -75 -34.5 -114
t-119.5 -39h-521z" />
    <glyph glyph-name="seven" unicode="7" horiz-adv-x="817" 
d="M169 0l459 579h-593v98h741v-90l-458 -587h-149z" />
    <glyph glyph-name="eight" unicode="8" horiz-adv-x="937" 
d="M204 0q-85 0 -119.5 39t-34.5 114v57q0 40 11.5 65.5t28.5 40t37 20.5t37 8q-15 1 -33.5 6.5t-34 20t-26 41t-10.5 69.5v43q0 75 34.5 114t119.5 39h508q85 0 119.5 -39t34.5 -114v-43q0 -43 -10.5 -69.5t-26 -41t-34 -20t-33.5 -6.5q17 -2 37 -8t37 -20.5t28.5 -40
t11.5 -65.5v-57q0 -75 -34.5 -114t-119.5 -39h-528zM261 297q-42 0 -66.5 -17.5t-24.5 -60.5v-37q0 -40 17.5 -60.5t59.5 -20.5h442q42 0 59.5 20.5t17.5 60.5v37q0 43 -24.5 60.5t-66.5 17.5h-414zM257 576q-42 0 -59.5 -20.5t-17.5 -59.5v-26q0 -45 24 -62.5t63 -17.5h402
q39 0 63 17.5t24 62.5v26q0 39 -17.5 59.5t-59.5 20.5h-422z" />
    <glyph glyph-name="nine" unicode="9" horiz-adv-x="934" 
d="M173 469q0 -39 17.5 -59.5t59.5 -20.5h512v106q0 40 -18 60.5t-60 20.5h-434q-42 0 -59.5 -20.5t-17.5 -60.5v-26zM727 677q86 0 121 -39t35 -114v-304q0 -112 -49.5 -166t-155.5 -54h-575v111h550q57 0 83 30t26 91v63h-555q-85 0 -119.5 39t-34.5 114v76q0 75 34.5 114
t119.5 39h520z" />
    <glyph glyph-name="colon" unicode=":" horiz-adv-x="230" 
d="M57 0v178h116v-178h-116zM57 393v178h116v-178h-116z" />
    <glyph glyph-name="semicolon" unicode=";" horiz-adv-x="248" 
d="M41 -90l30 268h119l-32 -134t-33 -134h-84zM74 393v178h115v-178h-115z" />
    <glyph glyph-name="less" unicode="&#x3c;" horiz-adv-x="623" 
d="M57 305v51l509 231v-74l-403 -182l403 -181v-74z" />
    <glyph glyph-name="equal" unicode="=" horiz-adv-x="623" 
d="M57 205v67h509v-67h-509zM57 425v68h509v-68h-509z" />
    <glyph glyph-name="greater" unicode="&#x3e;" horiz-adv-x="623" 
d="M57 76v74l403 181l-403 182v74l509 -231v-51z" />
    <glyph glyph-name="question" unicode="?" horiz-adv-x="775" 
d="M384 315q-25 0 -41 -14.5t-16 -44.5v-23h-115v22q0 69 36 105t118 36h182q42 0 60 20.5t18 59.5v20q0 39 -18 59.5t-60 20.5h-516v101h559q85 0 120 -39t35 -114v-56q0 -75 -35 -114t-120 -39h-207zM212 0v178h116v-178h-116z" />
    <glyph glyph-name="at" unicode="@" horiz-adv-x="717" 
d="M193 0q-75 0 -105.5 34.5t-30.5 97.5v434q0 60 26 85.5t83 25.5h391q27 0 47 -5t32.5 -17.5t18.5 -34t6 -54.5v-361h-327q-24 0 -38 5t-21.5 13.5t-9.5 21t-2 27.5v167q0 26 17 42.5t62 16.5h262v60q0 36 -14 48.5t-44 12.5h-357q-32 0 -48 -15.5t-16 -50.5v-407
q0 -38 19 -60.5t64 -22.5h453v-63h-468zM604 450h-238q-26 0 -36.5 -9t-10.5 -28v-117q0 -19 7 -29t36 -10h242v193z" />
    <glyph glyph-name="A" unicode="A" horiz-adv-x="979" 
d="M207 0q-85 0 -119.5 39t-34.5 114v87q0 75 34.5 114t119.5 39h598v52q0 121 -108 121h-627v111h652q106 0 154.5 -54t48.5 -166v-457h-718zM805 300h-555q-42 0 -59.5 -20.5t-17.5 -59.5v-38q0 -40 17.5 -60.5t59.5 -20.5h555v199z" />
    <glyph glyph-name="B" unicode="B" horiz-adv-x="985" 
d="M57 0v677h714q85 0 119.5 -39t34.5 -114v-40q0 -43 -10.5 -69.5t-26 -41.5t-34 -20.5t-33.5 -6.5q17 -2 37 -7.5t37 -20t28.5 -39.5t11.5 -66v-60q0 -75 -34.5 -114t-119.5 -39h-724zM815 222q0 42 -25.5 59.5t-65.5 17.5h-546v-198h560q42 0 59.5 20.5t17.5 60.5v40z
M805 496q0 39 -17.5 59.5t-59.5 20.5h-550v-183h540q39 0 63 17t24 62v24z" />
    <glyph glyph-name="C" unicode="C" horiz-adv-x="912" 
d="M254 0q-106 0 -155.5 54t-49.5 166v237q0 112 49.5 166t155.5 54h608v-111h-583q-57 0 -83 -30t-26 -91v-213q0 -60 26 -90.5t83 -30.5h583v-111h-608z" />
    <glyph glyph-name="D" unicode="D" horiz-adv-x="979" 
d="M809 396q0 37 -6 68.5t-21 54t-40 35t-63 12.5h-501v-455h466q82 0 123.5 31.5t41.5 103.5v150zM57 0v677h645q114 0 171 -65.5t57 -176.5v-199q0 -108 -56.5 -172t-171.5 -64h-645z" />
    <glyph glyph-name="E" unicode="E" horiz-adv-x="976" 
d="M254 0q-106 0 -155.5 54t-49.5 166v304q0 75 35 114t121 39h563q85 0 119.5 -39t34.5 -114v-91q0 -75 -34.5 -114t-119.5 -39h-598v-48q0 -60 26 -90.5t83 -30.5h626v-111h-651zM802 496q0 39 -17.5 59.5t-59.5 20.5h-477q-42 0 -60 -20.5t-18 -59.5v-122h555
q42 0 59.5 21t17.5 60v41z" />
    <glyph glyph-name="F" unicode="F" horiz-adv-x="961" 
d="M177 219v-219h-120v677h873v-111h-753v-247h747v-100h-747z" />
    <glyph glyph-name="G" unicode="G" 
d="M205 0q-86 0 -121 42.5t-35 136.5v278q0 112 49.5 166t155.5 54h645v-111h-620q-57 0 -83 -30t-26 -91v-250q0 -49 18 -71.5t60 -22.5h547v268h120v-369h-710z" />
    <glyph glyph-name="H" unicode="H" horiz-adv-x="952" 
d="M774 0v302h-596v-302h-121v677h121v-271h596v271h120v-677h-120z" />
    <glyph glyph-name="I" unicode="I" horiz-adv-x="234" 
d="M57 0v677h121v-677h-121z" />
    <glyph glyph-name="J" unicode="J" horiz-adv-x="723" 
d="M25 0v111h415q57 0 82.5 30.5t25.5 90.5v445h121v-457q0 -112 -49 -166t-155 -54h-440z" />
    <glyph glyph-name="K" unicode="K" horiz-adv-x="965" 
d="M798 0l-342 300h-279v-300h-120v677h120v-286h281l329 286h147l-366 -326l384 -351h-154z" />
    <glyph glyph-name="L" unicode="L" horiz-adv-x="811" 
d="M256 0q-105 0 -154 54t-49 166v457h121v-445q0 -121 107 -121h505v-111h-530z" />
    <glyph glyph-name="M" unicode="M" horiz-adv-x="1195" 
d="M1021 0v445q0 121 -108 121h-254v-566h-120v566h-361v-566h-121v677h881q105 0 154 -54.5t49 -165.5v-457h-120z" />
    <glyph glyph-name="N" unicode="N" horiz-adv-x="966" 
d="M792 0v445q0 121 -108 121h-506v-566h-121v677h652q105 0 154 -54.5t49 -165.5v-457h-120z" />
    <glyph glyph-name="O" unicode="O" 
d="M254 0q-106 0 -155.5 54t-49.5 166v237q0 112 49.5 166t155.5 54h464q106 0 155 -54t49 -166v-237q0 -112 -49 -166t-155 -54h-464zM801 445q0 61 -25.5 91t-82.5 30h-414q-57 0 -83 -30t-26 -91v-213q0 -60 26 -90.5t83 -30.5h414q57 0 82.5 30.5t25.5 90.5v213z" />
    <glyph glyph-name="P" unicode="P" horiz-adv-x="937" 
d="M178 184v-184h-121v677h697q85 0 119.5 -39t34.5 -114v-174q0 -44 -8 -75.5t-26 -51.5t-47.5 -29.5t-72.5 -9.5h-576zM788 496q0 39 -17.5 59.5t-59.5 20.5h-533v-298h533q42 0 59.5 20.5t17.5 66.5v131z" />
    <glyph glyph-name="Q" unicode="Q" horiz-adv-x="992" 
d="M261 0q-106 0 -155 54t-49 166v237q0 112 49 166t155 54h431q106 0 154.5 -54t48.5 -166v-346h85v-111h-719zM779 445q0 121 -107 121h-386q-57 0 -82.5 -30t-25.5 -91v-213q0 -60 25.5 -90.5t82.5 -30.5h493v334z" />
    <glyph glyph-name="R" unicode="R" horiz-adv-x="975" 
d="M832 0q-8 6 -12.5 16t-4.5 28v125q0 45 -26 62.5t-68 17.5h-543v-249h-121v677h714q85 0 119.5 -39t34.5 -114v-84q0 -44 -10.5 -70t-26 -40.5t-34 -20t-33.5 -7.5q17 -2 37 -7.5t37 -20t28.5 -39.5t11.5 -66v-125q0 -18 4.5 -28t12.5 -16h-120zM805 496q0 39 -17.5 59.5
t-59.5 20.5h-550v-234h540q39 0 63 17t24 62v75z" />
    <glyph glyph-name="S" unicode="S" horiz-adv-x="943" 
d="M53 0v101h646q42 0 60 20.5t18 60.5v33q0 38 -17.5 59.5t-59.5 21.5h-493q-85 0 -119.5 39.5t-34.5 114.5v74q0 75 34.5 114t119.5 39h674v-101h-631q-42 0 -59.5 -20.5t-17.5 -59.5v-25q0 -39 17.5 -60t59.5 -21h492q85 0 120 -39.5t35 -114.5v-83q0 -75 -35 -114
t-120 -39h-689z" />
    <glyph glyph-name="T" unicode="T" horiz-adv-x="894" 
d="M387 0v566h-363v111h847v-111h-364v-566h-120z" />
    <glyph glyph-name="U" unicode="U" horiz-adv-x="960" 
d="M256 0q-203 0 -203 220v457h122v-445q0 -121 107 -121h501v566h119v-677h-646z" />
    <glyph glyph-name="V" unicode="V" horiz-adv-x="1037" 
d="M886 677h139l-364 -677h-278l-371 677h144l309 -579h118z" />
    <glyph glyph-name="W" unicode="W" horiz-adv-x="1186" 
d="M256 0q-203 0 -203 220v457h121v-445q0 -121 107 -121h253v566h121v-566h353v566h121v-677h-873z" />
    <glyph glyph-name="X" unicode="X" horiz-adv-x="1055" 
d="M859 0l-343 277l-341 -277h-153l421 346l-404 331h170l321 -260l320 260h153l-400 -329l433 -348h-177z" />
    <glyph glyph-name="Y" unicode="Y" horiz-adv-x="1037" 
d="M460 0v231l-448 446h156l354 -353l353 353h150l-444 -448v-229h-121z" />
    <glyph glyph-name="Z" unicode="Z" horiz-adv-x="916" 
d="M47 0v84l636 495h-636v98h825v-84l-617 -497h617v-96h-825z" />
    <glyph glyph-name="bracketleft" unicode="[" horiz-adv-x="371" 
d="M106 -145v964h207v-57h-138v-849h138v-58h-207z" />
    <glyph glyph-name="backslash" unicode="\" horiz-adv-x="423" 
d="M341 -27l-329 731h69l330 -731h-70z" />
    <glyph glyph-name="bracketright" unicode="]" horiz-adv-x="370" 
d="M57 -145v58h139v849h-139v57h207v-964h-207z" />
    <glyph glyph-name="asciicircum" unicode="^" horiz-adv-x="577" 
d="M436 249l-149 322l-150 -322h-80l197 428h66l200 -428h-84z" />
    <glyph glyph-name="underscore" unicode="_" horiz-adv-x="639" 
d="M0 -125v65h640v-65h-640z" />
    <glyph glyph-name="grave" unicode="`" horiz-adv-x="522" 
d="M57 851v73l408 -149v-56z" />
    <glyph glyph-name="a" unicode="a" horiz-adv-x="979" 
d="M207 0q-85 0 -119.5 39t-34.5 114v87q0 75 34.5 114t119.5 39h598v52q0 121 -108 121h-627v111h652q106 0 154.5 -54t48.5 -166v-457h-718zM805 300h-555q-42 0 -59.5 -20.5t-17.5 -59.5v-38q0 -40 17.5 -60.5t59.5 -20.5h555v199z" />
    <glyph glyph-name="b" unicode="b" horiz-adv-x="985" 
d="M57 0v677h714q85 0 119.5 -39t34.5 -114v-40q0 -43 -10.5 -69.5t-26 -41.5t-34 -20.5t-33.5 -6.5q17 -2 37 -7.5t37 -20t28.5 -39.5t11.5 -66v-60q0 -75 -34.5 -114t-119.5 -39h-724zM815 222q0 42 -25.5 59.5t-65.5 17.5h-546v-198h560q42 0 59.5 20.5t17.5 60.5v40z
M805 496q0 39 -17.5 59.5t-59.5 20.5h-550v-183h540q39 0 63 17t24 62v24z" />
    <glyph glyph-name="c" unicode="c" horiz-adv-x="912" 
d="M254 0q-106 0 -155.5 54t-49.5 166v237q0 112 49.5 166t155.5 54h608v-111h-583q-57 0 -83 -30t-26 -91v-213q0 -60 26 -90.5t83 -30.5h583v-111h-608z" />
    <glyph glyph-name="d" unicode="d" horiz-adv-x="979" 
d="M809 396q0 37 -6 68.5t-21 54t-40 35t-63 12.5h-501v-455h466q82 0 123.5 31.5t41.5 103.5v150zM57 0v677h645q114 0 171 -65.5t57 -176.5v-199q0 -108 -56.5 -172t-171.5 -64h-645z" />
    <glyph glyph-name="e" unicode="e" horiz-adv-x="976" 
d="M254 0q-106 0 -155.5 54t-49.5 166v304q0 75 35 114t121 39h563q85 0 119.5 -39t34.5 -114v-91q0 -75 -34.5 -114t-119.5 -39h-598v-48q0 -60 26 -90.5t83 -30.5h626v-111h-651zM802 496q0 39 -17.5 59.5t-59.5 20.5h-477q-42 0 -60 -20.5t-18 -59.5v-122h555
q42 0 59.5 21t17.5 60v41z" />
    <glyph glyph-name="f" unicode="f" horiz-adv-x="961" 
d="M177 219v-219h-120v677h873v-111h-753v-247h747v-100h-747z" />
    <glyph glyph-name="g" unicode="g" 
d="M205 0q-86 0 -121 42.5t-35 136.5v278q0 112 49.5 166t155.5 54h645v-111h-620q-57 0 -83 -30t-26 -91v-250q0 -49 18 -71.5t60 -22.5h547v268h120v-369h-710z" />
    <glyph glyph-name="h" unicode="h" horiz-adv-x="952" 
d="M774 0v302h-596v-302h-121v677h121v-271h596v271h120v-677h-120z" />
    <glyph glyph-name="i" unicode="i" horiz-adv-x="234" 
d="M57 0v677h121v-677h-121z" />
    <glyph glyph-name="j" unicode="j" horiz-adv-x="723" 
d="M25 0v111h415q57 0 82.5 30.5t25.5 90.5v445h121v-457q0 -112 -49 -166t-155 -54h-440z" />
    <glyph glyph-name="k" unicode="k" horiz-adv-x="965" 
d="M798 0l-342 300h-279v-300h-120v677h120v-286h281l329 286h147l-366 -326l384 -351h-154z" />
    <glyph glyph-name="l" unicode="l" horiz-adv-x="811" 
d="M256 0q-105 0 -154 54t-49 166v457h121v-445q0 -121 107 -121h505v-111h-530z" />
    <glyph glyph-name="m" unicode="m" horiz-adv-x="1195" 
d="M1021 0v445q0 121 -108 121h-254v-566h-120v566h-361v-566h-121v677h881q105 0 154 -54.5t49 -165.5v-457h-120z" />
    <glyph glyph-name="n" unicode="n" horiz-adv-x="966" 
d="M792 0v445q0 121 -108 121h-506v-566h-121v677h652q105 0 154 -54.5t49 -165.5v-457h-120z" />
    <glyph glyph-name="o" unicode="o" 
d="M254 0q-106 0 -155.5 54t-49.5 166v237q0 112 49.5 166t155.5 54h464q106 0 155 -54t49 -166v-237q0 -112 -49 -166t-155 -54h-464zM801 445q0 61 -25.5 91t-82.5 30h-414q-57 0 -83 -30t-26 -91v-213q0 -60 26 -90.5t83 -30.5h414q57 0 82.5 30.5t25.5 90.5v213z" />
    <glyph glyph-name="p" unicode="p" horiz-adv-x="937" 
d="M178 184v-184h-121v677h697q85 0 119.5 -39t34.5 -114v-174q0 -44 -8 -75.5t-26 -51.5t-47.5 -29.5t-72.5 -9.5h-576zM788 496q0 39 -17.5 59.5t-59.5 20.5h-533v-298h533q42 0 59.5 20.5t17.5 66.5v131z" />
    <glyph glyph-name="q" unicode="q" horiz-adv-x="992" 
d="M261 0q-106 0 -155 54t-49 166v237q0 112 49 166t155 54h431q106 0 154.5 -54t48.5 -166v-346h85v-111h-719zM779 445q0 121 -107 121h-386q-57 0 -82.5 -30t-25.5 -91v-213q0 -60 25.5 -90.5t82.5 -30.5h493v334z" />
    <glyph glyph-name="r" unicode="r" horiz-adv-x="975" 
d="M832 0q-8 6 -12.5 16t-4.5 28v125q0 45 -26 62.5t-68 17.5h-543v-249h-121v677h714q85 0 119.5 -39t34.5 -114v-84q0 -44 -10.5 -70t-26 -40.5t-34 -20t-33.5 -7.5q17 -2 37 -7.5t37 -20t28.5 -39.5t11.5 -66v-125q0 -18 4.5 -28t12.5 -16h-120zM805 496q0 39 -17.5 59.5
t-59.5 20.5h-550v-234h540q39 0 63 17t24 62v75z" />
    <glyph glyph-name="s" unicode="s" horiz-adv-x="943" 
d="M53 0v101h646q42 0 60 20.5t18 60.5v33q0 38 -17.5 59.5t-59.5 21.5h-493q-85 0 -119.5 39.5t-34.5 114.5v74q0 75 34.5 114t119.5 39h674v-101h-631q-42 0 -59.5 -20.5t-17.5 -59.5v-25q0 -39 17.5 -60t59.5 -21h492q85 0 120 -39.5t35 -114.5v-83q0 -75 -35 -114
t-120 -39h-689z" />
    <glyph glyph-name="t" unicode="t" horiz-adv-x="894" 
d="M387 0v566h-363v111h847v-111h-364v-566h-120z" />
    <glyph glyph-name="u" unicode="u" horiz-adv-x="960" 
d="M256 0q-203 0 -203 220v457h122v-445q0 -121 107 -121h501v566h119v-677h-646z" />
    <glyph glyph-name="v" unicode="v" horiz-adv-x="1037" 
d="M886 677h139l-364 -677h-278l-371 677h144l309 -579h118z" />
    <glyph glyph-name="w" unicode="w" horiz-adv-x="1186" 
d="M256 0q-203 0 -203 220v457h121v-445q0 -121 107 -121h253v566h121v-566h353v566h121v-677h-873z" />
    <glyph glyph-name="x" unicode="x" horiz-adv-x="1055" 
d="M859 0l-343 277l-341 -277h-153l421 346l-404 331h170l321 -260l320 260h153l-400 -329l433 -348h-177z" />
    <glyph glyph-name="y" unicode="y" horiz-adv-x="1037" 
d="M460 0v231l-448 446h156l354 -353l353 353h150l-444 -448v-229h-121z" />
    <glyph glyph-name="z" unicode="z" horiz-adv-x="916" 
d="M47 0v84l636 495h-636v98h825v-84l-617 -497h617v-96h-825z" />
    <glyph glyph-name="braceleft" unicode="{" horiz-adv-x="402" 
d="M265 -145q-24 0 -48.5 7t-44 24.5t-32 47t-12.5 74.5v230q0 43 -7 61t-23 18h-41v66h41q17 0 23.5 17.5t6.5 56.5v224q0 39 12 65.5t31 42.5t43.5 23t48.5 7h81v-61h-66q-32 0 -57 -29.5t-25 -95.5v-193q0 -35 -9 -57.5t-30 -34.5q23 -13 31 -34.5t8 -56.5v-225
q0 -32 6.5 -54t18 -35.5t26 -19.5t29.5 -6h68v-62h-79z" />
    <glyph glyph-name="bar" unicode="|" horiz-adv-x="331" 
d="M127 -123v943h78v-943h-78z" />
    <glyph glyph-name="braceright" unicode="}" horiz-adv-x="401" 
d="M57 -145v62h67q16 0 30.5 6t25.5 19.5t18 35.5t7 54v225q0 35 8.5 56.5t30.5 34.5q-21 12 -30 34.5t-9 57.5v193q0 66 -24.5 95.5t-56.5 29.5h-67v61h81q24 0 48.5 -7t44 -23t31.5 -42.5t12 -65.5v-224q0 -39 6 -56.5t22 -17.5h42v-66h-42q-14 0 -21 -18t-7 -61v-230
q0 -45 -12.5 -74.5t-32.5 -47t-44.5 -24.5t-48.5 -7h-79z" />
    <glyph glyph-name="asciitilde" unicode="~" horiz-adv-x="623" 
d="M566 336q-53 -57 -145 -57q-30 0 -58 12t-56 26.5t-57 26.5t-61 12q-43 0 -73.5 -15t-58.5 -50v80q20 23 50.5 36.5t78.5 13.5q36 0 67 -12t59.5 -26.5t55.5 -26.5t56 -12q45 0 78.5 17.5t63.5 62.5v-88z" />
    <glyph glyph-name="uni00A0" unicode="&#xa0;" horiz-adv-x="230" 
 />
    <glyph glyph-name="exclamdown" unicode="&#xa1;" horiz-adv-x="288" 
d="M201.005 677v-177.989h-115.992v177.989h115.992zM194.006 444.015l23.998 -443.974h-147.99l23.998 443.974h99.9941z" />
    <glyph glyph-name="cent" unicode="&#xa2;" horiz-adv-x="620" 
d="M374 64v-64h-50v64h-106q-87 0 -126 44t-39 135v191q0 91 39 135t126 44h106v64h50v-64h199v-91h-335q-45 0 -65.5 -24.5t-20.5 -72.5v-173q0 -48 20.5 -72.5t65.5 -24.5h335v-91h-199z" />
    <glyph glyph-name="sterling" unicode="&#xa3;" horiz-adv-x="694" 
d="M48 0v112h64v185h-65v78h65v82q0 112 48.5 166t154.5 54h329v-111h-304q-57 0 -82 -30t-25 -91v-70h406v-78h-406v-185h408v-112h-593z" />
    <glyph glyph-name="yen" unicode="&#xa5;" horiz-adv-x="653" 
d="M269 0v230h-208v66h208v86l-236 295h141l159 -210l160 210h126l-230 -285v-96h203v-66h-203v-230h-120z" />
    <glyph glyph-name="brokenbar" unicode="&#xa6;" horiz-adv-x="331" 
d="M127 -123v421h78v-421h-78zM205 418h-78v402h78v-402z" />
    <glyph glyph-name="section" unicode="&#xa7;" horiz-adv-x="724" 
d="M246 -174v88h244q43 0 60 20.5t17 59.5v77h-362q-86 0 -120.5 40t-34.5 114v299q0 74 34 113.5t121 39.5h275v-88h-245q-43 0 -60 -20.5t-17 -60.5v-76h362q85 0 119.5 -39.5t34.5 -114.5v-299q0 -37 -7.5 -65.5t-25.5 -48t-47.5 -29.5t-73.5 -10h-274zM567 271
q0 39 -17.5 60t-59.5 21h-332v-120q0 -39 17.5 -60t59.5 -21h332v120z" />
    <glyph glyph-name="dieresis" unicode="&#xa8;" horiz-adv-x="485" 
d="M339 735v156h90v-156h-90zM57 735v156h90v-156h-90z" />
    <glyph glyph-name="ordfeminine" unicode="&#xaa;" horiz-adv-x="598" 
d="M144 300q-48 0 -66.5 21t-18.5 63v48q0 42 18.5 63t66.5 21h329v29q0 66 -60 66h-345v61h359q58 0 85 -30t27 -91v-251h-395zM473 465h-306q-23 0 -32.5 -11t-9.5 -33v-21q0 -22 9.5 -33t32.5 -11h306v109z" />
    <glyph glyph-name="guillemotleft" unicode="&#xab;" horiz-adv-x="519" 
d="M29 319l177 231l50 -45l-145 -186l145 -188l-50 -44zM263 319l178 231l49 -45l-144 -186l144 -188l-49 -44z" />
    <glyph glyph-name="macron" unicode="&#xaf;" horiz-adv-x="583" 
d="M57 791v69h470v-69h-470z" />
    <glyph glyph-name="degree" unicode="&#xb0;" horiz-adv-x="487" 
d="M374 574q0 25 -7.5 46t-23 37t-40.5 25t-61 9q-35 0 -59.5 -9t-40 -25t-22.5 -37t-7 -46t7 -47t22.5 -38.5t40 -26t59.5 -9.5t60 9.5t41 26t23.5 38.5t7.5 47zM430 573q0 -35 -10.5 -66t-33 -54t-58 -36.5t-86.5 -13.5q-50 0 -85 13.5t-57.5 36.5t-32.5 54t-10 66
t10 65.5t32.5 53.5t57.5 36t85 13q51 0 86.5 -13t58 -36t33 -53.5t10.5 -65.5z" />
    <glyph glyph-name="plusminus" unicode="&#xb1;" horiz-adv-x="623" 
d="M278 95v221h-221v67h221v221h68v-221h220v-67h-220v-221h-68zM57 -20v67h509v-67h-509z" />
    <glyph glyph-name="uni00B2" unicode="&#xb2;" horiz-adv-x="486" 
d="M43 349v114q0 38 17 57.5t60 19.5h225q21 0 30 10.5t9 30.5v16q0 20 -9 30t-30 10h-292v50h313q43 0 60.5 -19.5t17.5 -56.5v-29q0 -37 -17.5 -63t-60.5 -26h-225q-21 0 -29.5 -10.5t-8.5 -29.5v-54h341v-50h-401z" />
    <glyph glyph-name="uni00B3" unicode="&#xb3;" horiz-adv-x="470" 
d="M36 349v50h291q21 0 30 10.5t9 30.5v18q0 22 -13 30.5t-33 8.5h-273v47h270q20 0 32 8.5t12 31.5v13q0 20 -9 30t-30 10h-285v50h307q42 0 59.5 -19.5t17.5 -56.5v-22q0 -21 -5.5 -34t-13 -20t-16.5 -10t-16 -4q9 -1 18.5 -4.5t18 -11t14 -20t5.5 -31.5v-29
q0 -37 -17.5 -56.5t-59.5 -19.5h-313z" />
    <glyph glyph-name="acute" unicode="&#xb4;" horiz-adv-x="522" 
d="M57 719v56l408 149v-73z" />
    <glyph glyph-name="paragraph" unicode="&#xb6;" horiz-adv-x="535" 
d="M412 -125v734h-163v-734h-73v556q-60 10 -97.5 39t-37.5 89q0 25 8 46.5t25 37.5t45 25t69 9h295v-802h-71z" />
    <glyph glyph-name="periodcentered" unicode="&#xb7;" horiz-adv-x="230" 
d="M57 240v178h116v-178h-116z" />
    <glyph glyph-name="cedilla" unicode="&#xb8;" horiz-adv-x="238" 
d="M57 -276l38 230h85l-73 -230h-50z" />
    <glyph glyph-name="uni00B9" unicode="&#xb9;" horiz-adv-x="231" 
d="M127 349v237q0 46 -45 46h-53v55h66q92 0 92 -95v-243h-60z" />
    <glyph glyph-name="ordmasculine" unicode="&#xba;" horiz-adv-x="595" 
d="M170 300q-113 0 -113 121v130q0 121 113 121h255q58 0 85 -30t27 -91v-130q0 -61 -27 -91t-85 -30h-255zM471 545q0 66 -60 66h-228q-59 0 -59 -66v-117q0 -67 59 -67h228q60 0 60 67v117z" />
    <glyph glyph-name="guillemotright" unicode="&#xbb;" horiz-adv-x="518" 
d="M29 131l145 188l-145 186l50 45l176 -231l-176 -232zM263 131l145 188l-145 186l50 45l177 -231l-177 -232z" />
    <glyph glyph-name="onequarter" unicode="&#xbc;" horiz-adv-x="880" 
d="M197 349v237q0 46 -45 46h-53v55h66q92 0 92 -95v-243h-60zM49 -31l588 743h67l-589 -743h-66zM739 -10v66h-316v46l294 226h80v-228h33v-44h-33v-66h-58zM739 282l-240 -182h240v182z" />
    <glyph glyph-name="onehalf" unicode="&#xbd;" horiz-adv-x="925" 
d="M197 349v237q0 46 -45 46h-53v55h66q92 0 92 -95v-243h-60zM49 -31l588 743h67l-589 -743h-66zM474 -10v114q0 38 17 57.5t60 19.5h225q21 0 30 10.5t9 30.5v16q0 20 -9 30t-30 10h-292v50h313q43 0 60.5 -19.5t17.5 -56.5v-29q0 -37 -17.5 -63t-60.5 -26h-225
q-21 0 -29.5 -10.5t-8.5 -29.5v-54h341v-50h-401z" />
    <glyph glyph-name="threequarters" unicode="&#xbe;" 
d="M49 349v50h291q21 0 30 10.5t9 30.5v18q0 22 -13 30.5t-33 8.5h-273v47h270q20 0 32 8.5t12 31.5v13q0 20 -9 30t-30 10h-285v50h307q42 0 59.5 -19.5t17.5 -56.5v-22q0 -21 -5.5 -34t-13 -20t-16.5 -10t-16 -4q9 -1 18.5 -4.5t18 -11t14 -20t5.5 -31.5v-29
q0 -37 -17.5 -56.5t-59.5 -19.5h-313zM191 -31l588 743h67l-589 -743h-66zM831 -10v66h-316v46l294 226h80v-228h33v-44h-33v-66h-58zM831 282l-240 -182h240v182z" />
    <glyph glyph-name="questiondown" unicode="&#xbf;" horiz-adv-x="775" 
d="M392.023 362.02q24.998 0 40.9971 14.499t15.999 44.4971v22.999h114.993v-21.999q0 -68.9961 -35.9971 -104.994q-35.998 -35.9971 -117.993 -35.9971h-181.989q-41.9971 0 -59.9961 -20.499t-17.999 -59.4961v-19.999q0 -38.998 17.999 -59.4961
q17.999 -20.499 59.9961 -20.499h515.969v-100.994h-558.966q-84.9951 0 -119.993 38.998q-34.9971 38.9971 -34.9971 113.993v55.9961q0 74.9961 34.9971 113.993q34.998 38.998 119.993 38.998h206.987zM564.013 677v-177.989h-115.993v177.989h115.993z" />
    <glyph glyph-name="Agrave" unicode="&#xc0;" horiz-adv-x="979" 
d="M207 0q-85 0 -119.5 39t-34.5 114v87q0 75 34.5 114t119.5 39h598v52q0 121 -108 121h-627v111h652q106 0 154.5 -54t48.5 -166v-457h-718zM805 300h-555q-42 0 -59.5 -20.5t-17.5 -59.5v-38q0 -40 17.5 -60.5t59.5 -20.5h555v199zM260 851v73l408 -149v-56z" />
    <glyph glyph-name="Aacute" unicode="&#xc1;" horiz-adv-x="979" 
d="M207 0q-85 0 -119.5 39t-34.5 114v87q0 75 34.5 114t119.5 39h598v52q0 121 -108 121h-627v111h652q106 0 154.5 -54t48.5 -166v-457h-718zM805 300h-555q-42 0 -59.5 -20.5t-17.5 -59.5v-38q0 -40 17.5 -60.5t59.5 -20.5h555v199zM310 719v56l408 149v-73z" />
    <glyph glyph-name="Acircumflex" unicode="&#xc2;" horiz-adv-x="979" 
d="M207 0q-85 0 -119.5 39t-34.5 114v87q0 75 34.5 114t119.5 39h598v52q0 121 -108 121h-627v111h652q106 0 154.5 -54t48.5 -166v-457h-718zM805 300h-555q-42 0 -59.5 -20.5t-17.5 -59.5v-38q0 -40 17.5 -60.5t59.5 -20.5h555v199zM634 719l-167 159l-163 -159h-74
l217 205h43l219 -205h-75z" />
    <glyph glyph-name="Atilde" unicode="&#xc3;" horiz-adv-x="979" 
d="M207 0q-85 0 -119.5 39t-34.5 114v87q0 75 34.5 114t119.5 39h598v52q0 121 -108 121h-627v111h652q106 0 154.5 -54t48.5 -166v-457h-718zM805 300h-555q-42 0 -59.5 -20.5t-17.5 -59.5v-38q0 -40 17.5 -60.5t59.5 -20.5h555v199zM233 791v69h470v-69h-470z" />
    <glyph glyph-name="Adieresis" unicode="&#xc4;" horiz-adv-x="979" 
d="M207 0q-85 0 -119.5 39t-34.5 114v87q0 75 34.5 114t119.5 39h598v52q0 121 -108 121h-627v111h652q106 0 154.5 -54t48.5 -166v-457h-718zM805 300h-555q-42 0 -59.5 -20.5t-17.5 -59.5v-38q0 -40 17.5 -60.5t59.5 -20.5h555v199zM570 735v156h90v-156h-90zM288 735v156
h90v-156h-90z" />
    <glyph glyph-name="Aring" unicode="&#xc5;" horiz-adv-x="979" 
d="M207 0q-85 0 -119.5 39t-34.5 114v87q0 75 34.5 114t119.5 39h598v52q0 121 -108 121h-627v111h652q106 0 154.5 -54t48.5 -166v-457h-718zM805 300h-555q-42 0 -59.5 -20.5t-17.5 -59.5v-38q0 -40 17.5 -60.5t59.5 -20.5h555v199zM621 806q0 -57 -33 -88.5t-112 -31.5
q-78 0 -110 31.5t-32 88.5q0 54 32 86t110 32q79 0 112 -32t33 -86zM576 806q0 36 -22.5 57.5t-77.5 21.5q-54 0 -75.5 -21.5t-21.5 -57.5q0 -38 21.5 -60t75.5 -22q55 0 77.5 22t22.5 60z" />
    <glyph glyph-name="AE" unicode="&#xc6;" horiz-adv-x="1718" 
d="M207 0q-85 0 -119.5 39t-34.5 114v87q0 75 34.5 114t119.5 39h583v52q0 121 -108 121h-612v111h600q133 0 178 -93q12 46 48 69.5t102 23.5h512q85 0 119.5 -39t34.5 -114v-91q0 -75 -34.5 -114t-119.5 -39h-584v-48q0 -60 26 -90.5t83 -30.5h612v-111h-600
q-127 0 -174 80v-80h-666zM1544 496q0 39 -17.5 59.5t-59.5 20.5h-463q-42 0 -60 -20.5t-18 -59.5v-122h541q42 0 59.5 21t17.5 60v41zM790 300h-540q-42 0 -59.5 -20.5t-17.5 -59.5v-38q0 -40 17.5 -60.5t59.5 -20.5h540v199z" />
    <glyph glyph-name="Ccedilla" unicode="&#xc7;" horiz-adv-x="912" 
d="M254 0q-106 0 -155.5 54t-49.5 166v237q0 112 49.5 166t155.5 54h608v-111h-583q-57 0 -83 -30t-26 -91v-213q0 -60 26 -90.5t83 -30.5h583v-111h-608zM404 -276l38 230h85l-73 -230h-50z" />
    <glyph glyph-name="Egrave" unicode="&#xc8;" horiz-adv-x="976" 
d="M254 0q-106 0 -155.5 54t-49.5 166v304q0 75 35 114t121 39h563q85 0 119.5 -39t34.5 -114v-91q0 -75 -34.5 -114t-119.5 -39h-598v-48q0 -60 26 -90.5t83 -30.5h626v-111h-651zM802 496q0 39 -17.5 59.5t-59.5 20.5h-477q-42 0 -60 -20.5t-18 -59.5v-122h555
q42 0 59.5 21t17.5 60v41zM254 851v73l408 -149v-56z" />
    <glyph glyph-name="Eacute" unicode="&#xc9;" horiz-adv-x="976" 
d="M254 0q-106 0 -155.5 54t-49.5 166v304q0 75 35 114t121 39h563q85 0 119.5 -39t34.5 -114v-91q0 -75 -34.5 -114t-119.5 -39h-598v-48q0 -60 26 -90.5t83 -30.5h626v-111h-651zM802 496q0 39 -17.5 59.5t-59.5 20.5h-477q-42 0 -60 -20.5t-18 -59.5v-122h555
q42 0 59.5 21t17.5 60v41zM314 719v56l408 149v-73z" />
    <glyph glyph-name="Ecircumflex" unicode="&#xca;" horiz-adv-x="976" 
d="M254 0q-106 0 -155.5 54t-49.5 166v304q0 75 35 114t121 39h563q85 0 119.5 -39t34.5 -114v-91q0 -75 -34.5 -114t-119.5 -39h-598v-48q0 -60 26 -90.5t83 -30.5h626v-111h-651zM802 496q0 39 -17.5 59.5t-59.5 20.5h-477q-42 0 -60 -20.5t-18 -59.5v-122h555
q42 0 59.5 21t17.5 60v41zM652 719l-167 159l-163 -159h-74l217 205h43l219 -205h-75z" />
    <glyph glyph-name="Edieresis" unicode="&#xcb;" horiz-adv-x="976" 
d="M254 0q-106 0 -155.5 54t-49.5 166v304q0 75 35 114t121 39h563q85 0 119.5 -39t34.5 -114v-91q0 -75 -34.5 -114t-119.5 -39h-598v-48q0 -60 26 -90.5t83 -30.5h626v-111h-651zM802 496q0 39 -17.5 59.5t-59.5 20.5h-477q-42 0 -60 -20.5t-18 -59.5v-122h555
q42 0 59.5 21t17.5 60v41zM584 735v156h90v-156h-90zM302 735v156h90v-156h-90z" />
    <glyph glyph-name="Igrave" unicode="&#xcc;" horiz-adv-x="234" 
d="M57 0v677h121v-677h-121zM-116 851v73l408 -149v-56z" />
    <glyph glyph-name="Iacute" unicode="&#xcd;" horiz-adv-x="234" 
d="M57 0v677h121v-677h-121zM-56 719v56l408 149v-73z" />
    <glyph glyph-name="Icircumflex" unicode="&#xce;" horiz-adv-x="234" 
d="M57 0v677h121v-677h-121zM283 719l-167 159l-163 -159h-74l217 205h43l219 -205h-75z" />
    <glyph glyph-name="Idieresis" unicode="&#xcf;" horiz-adv-x="234" 
d="M57 0v677h121v-677h-121zM214 735v156h90v-156h-90zM-68 735v156h90v-156h-90z" />
    <glyph glyph-name="Eth" unicode="&#xd0;" horiz-adv-x="977" 
d="M55 0v293h-43v94h43v290h645q64 0 107.5 -19.5t70 -56t38 -88t11.5 -115.5v-162q0 -108 -56 -172t-171 -64h-645zM175 293v-182h502q37 0 62 11.5t40 32.5t21.5 50t6.5 64v134q0 36 -6.5 66t-21.5 51.5t-40 33.5t-62 12h-502v-179h233v-94h-233z" />
    <glyph glyph-name="Ntilde" unicode="&#xd1;" horiz-adv-x="966" 
d="M792 0v445q0 121 -108 121h-506v-566h-121v677h652q105 0 154 -54.5t49 -165.5v-457h-120zM228 791v69h470v-69h-470z" />
    <glyph glyph-name="Ograve" unicode="&#xd2;" 
d="M254 0q-106 0 -155.5 54t-49.5 166v237q0 112 49.5 166t155.5 54h464q106 0 155 -54t49 -166v-237q0 -112 -49 -166t-155 -54h-464zM801 445q0 61 -25.5 91t-82.5 30h-414q-57 0 -83 -30t-26 -91v-213q0 -60 26 -90.5t83 -30.5h414q57 0 82.5 30.5t25.5 90.5v213z
M252 851v73l408 -149v-56z" />
    <glyph glyph-name="Oacute" unicode="&#xd3;" 
d="M254 0q-106 0 -155.5 54t-49.5 166v237q0 112 49.5 166t155.5 54h464q106 0 155 -54t49 -166v-237q0 -112 -49 -166t-155 -54h-464zM801 445q0 61 -25.5 91t-82.5 30h-414q-57 0 -83 -30t-26 -91v-213q0 -60 26 -90.5t83 -30.5h414q57 0 82.5 30.5t25.5 90.5v213z
M312 719v56l408 149v-73z" />
    <glyph glyph-name="Ocircumflex" unicode="&#xd4;" 
d="M254 0q-106 0 -155.5 54t-49.5 166v237q0 112 49.5 166t155.5 54h464q106 0 155 -54t49 -166v-237q0 -112 -49 -166t-155 -54h-464zM801 445q0 61 -25.5 91t-82.5 30h-414q-57 0 -83 -30t-26 -91v-213q0 -60 26 -90.5t83 -30.5h414q57 0 82.5 30.5t25.5 90.5v213z
M650 719l-167 159l-163 -159h-74l217 205h43l219 -205h-75z" />
    <glyph glyph-name="Otilde" unicode="&#xd5;" 
d="M254 0q-106 0 -155.5 54t-49.5 166v237q0 112 49.5 166t155.5 54h464q106 0 155 -54t49 -166v-237q0 -112 -49 -166t-155 -54h-464zM801 445q0 61 -25.5 91t-82.5 30h-414q-57 0 -83 -30t-26 -91v-213q0 -60 26 -90.5t83 -30.5h414q57 0 82.5 30.5t25.5 90.5v213z
M251 791v69h470v-69h-470z" />
    <glyph glyph-name="Odieresis" unicode="&#xd6;" 
d="M254 0q-106 0 -155.5 54t-49.5 166v237q0 112 49.5 166t155.5 54h464q106 0 155 -54t49 -166v-237q0 -112 -49 -166t-155 -54h-464zM801 445q0 61 -25.5 91t-82.5 30h-414q-57 0 -83 -30t-26 -91v-213q0 -60 26 -90.5t83 -30.5h414q57 0 82.5 30.5t25.5 90.5v213z
M582 735v156h90v-156h-90zM300 735v156h90v-156h-90z" />
    <glyph glyph-name="multiply" unicode="&#xd7;" horiz-adv-x="623" 
d="M467 146l-156 156l-156 -156l-48 47l157 157l-157 156l48 48l157 -156l155 155l48 -47l-156 -156l156 -156z" />
    <glyph glyph-name="Oslash" unicode="&#xd8;" 
d="M315 0l-42 -71h-61l42 71q-106 0 -155.5 54t-49.5 166v237q0 112 49.5 166t155.5 54h404l43 72h61l-43 -72q106 -1 154.5 -55t48.5 -165v-237q0 -112 -49 -166t-155 -54h-403zM170 232q0 -60 26 -90.5t83 -30.5h41l272 455h-313q-57 0 -83 -30t-26 -91v-213zM801 445
q0 61 -25.5 91t-82.5 30h-40l-272 -455h312q57 0 82.5 30.5t25.5 90.5v213z" />
    <glyph glyph-name="Ugrave" unicode="&#xd9;" horiz-adv-x="960" 
d="M256 0q-203 0 -203 220v457h122v-445q0 -121 107 -121h501v566h119v-677h-646zM246 851v73l408 -149v-56z" />
    <glyph glyph-name="Uacute" unicode="&#xda;" horiz-adv-x="960" 
d="M256 0q-203 0 -203 220v457h122v-445q0 -121 107 -121h501v566h119v-677h-646zM306 719v56l408 149v-73z" />
    <glyph glyph-name="Ucircumflex" unicode="&#xdb;" horiz-adv-x="960" 
d="M256 0q-203 0 -203 220v457h122v-445q0 -121 107 -121h501v566h119v-677h-646zM644 719l-167 159l-163 -159h-74l217 205h43l219 -205h-75z" />
    <glyph glyph-name="Udieresis" unicode="&#xdc;" horiz-adv-x="960" 
d="M256 0q-203 0 -203 220v457h122v-445q0 -121 107 -121h501v566h119v-677h-646zM576 735v156h90v-156h-90zM294 735v156h90v-156h-90z" />
    <glyph glyph-name="Yacute" unicode="&#xdd;" horiz-adv-x="1037" 
d="M460 0v231l-448 446h156l354 -353l353 353h150l-444 -448v-229h-121zM348 719v56l408 149v-73z" />
    <glyph glyph-name="Thorn" unicode="&#xde;" horiz-adv-x="946" 
d="M178 108v-108h-121v677h121v-112h576q85 0 119.5 -39.5t34.5 -114.5v-137q0 -44 -8 -75.5t-26 -51.5t-47.5 -29.5t-72.5 -9.5h-576zM788 391q0 40 -17.5 60.5t-59.5 20.5h-533v-276h533q42 0 59.5 20.5t17.5 66.5v108z" />
    <glyph glyph-name="germandbls" unicode="&#xdf;" horiz-adv-x="1886" 
d="M53 0v101h646q42 0 60 20.5t18 60.5v33q0 38 -17.5 59.5t-59.5 21.5h-493q-85 0 -119.5 39.5t-34.5 114.5v74q0 75 34.5 114t119.5 39h674v-101h-631q-42 0 -59.5 -20.5t-17.5 -59.5v-25q0 -39 17.5 -60t59.5 -21h492q85 0 120 -39.5t35 -114.5v-83q0 -75 -35 -114
t-120 -39h-689zM996 0v101h646q42 0 60 20.5t18 60.5v33q0 38 -17.5 59.5t-59.5 21.5h-493q-85 0 -119.5 39.5t-34.5 114.5v74q0 75 34.5 114t119.5 39h674v-101h-631q-42 0 -59.5 -20.5t-17.5 -59.5v-25q0 -39 17.5 -60t59.5 -21h492q85 0 120 -39.5t35 -114.5v-83
q0 -75 -35 -114t-120 -39h-689z" />
    <glyph glyph-name="agrave" unicode="&#xe0;" horiz-adv-x="979" 
d="M207 0q-85 0 -119.5 39t-34.5 114v87q0 75 34.5 114t119.5 39h598v52q0 121 -108 121h-627v111h652q106 0 154.5 -54t48.5 -166v-457h-718zM805 300h-555q-42 0 -59.5 -20.5t-17.5 -59.5v-38q0 -40 17.5 -60.5t59.5 -20.5h555v199zM260 851v73l408 -149v-56z" />
    <glyph glyph-name="aacute" unicode="&#xe1;" horiz-adv-x="979" 
d="M207 0q-85 0 -119.5 39t-34.5 114v87q0 75 34.5 114t119.5 39h598v52q0 121 -108 121h-627v111h652q106 0 154.5 -54t48.5 -166v-457h-718zM805 300h-555q-42 0 -59.5 -20.5t-17.5 -59.5v-38q0 -40 17.5 -60.5t59.5 -20.5h555v199zM310 719v56l408 149v-73z" />
    <glyph glyph-name="acircumflex" unicode="&#xe2;" horiz-adv-x="979" 
d="M207 0q-85 0 -119.5 39t-34.5 114v87q0 75 34.5 114t119.5 39h598v52q0 121 -108 121h-627v111h652q106 0 154.5 -54t48.5 -166v-457h-718zM805 300h-555q-42 0 -59.5 -20.5t-17.5 -59.5v-38q0 -40 17.5 -60.5t59.5 -20.5h555v199zM634 719l-167 159l-163 -159h-74
l217 205h43l219 -205h-75z" />
    <glyph glyph-name="atilde" unicode="&#xe3;" horiz-adv-x="979" 
d="M207 0q-85 0 -119.5 39t-34.5 114v87q0 75 34.5 114t119.5 39h598v52q0 121 -108 121h-627v111h652q106 0 154.5 -54t48.5 -166v-457h-718zM805 300h-555q-42 0 -59.5 -20.5t-17.5 -59.5v-38q0 -40 17.5 -60.5t59.5 -20.5h555v199zM233 791v69h470v-69h-470z" />
    <glyph glyph-name="adieresis" unicode="&#xe4;" horiz-adv-x="979" 
d="M207 0q-85 0 -119.5 39t-34.5 114v87q0 75 34.5 114t119.5 39h598v52q0 121 -108 121h-627v111h652q106 0 154.5 -54t48.5 -166v-457h-718zM805 300h-555q-42 0 -59.5 -20.5t-17.5 -59.5v-38q0 -40 17.5 -60.5t59.5 -20.5h555v199zM570 735v156h90v-156h-90zM288 735v156
h90v-156h-90z" />
    <glyph glyph-name="aring" unicode="&#xe5;" horiz-adv-x="979" 
d="M207 0q-85 0 -119.5 39t-34.5 114v87q0 75 34.5 114t119.5 39h598v52q0 121 -108 121h-627v111h652q106 0 154.5 -54t48.5 -166v-457h-718zM805 300h-555q-42 0 -59.5 -20.5t-17.5 -59.5v-38q0 -40 17.5 -60.5t59.5 -20.5h555v199zM621 806q0 -57 -33 -88.5t-112 -31.5
q-78 0 -110 31.5t-32 88.5q0 54 32 86t110 32q79 0 112 -32t33 -86zM576 806q0 36 -22.5 57.5t-77.5 21.5q-54 0 -75.5 -21.5t-21.5 -57.5q0 -38 21.5 -60t75.5 -22q55 0 77.5 22t22.5 60z" />
    <glyph glyph-name="ae" unicode="&#xe6;" horiz-adv-x="1718" 
d="M207 0q-85 0 -119.5 39t-34.5 114v87q0 75 34.5 114t119.5 39h583v52q0 121 -108 121h-612v111h600q133 0 178 -93q12 46 48 69.5t102 23.5h512q85 0 119.5 -39t34.5 -114v-91q0 -75 -34.5 -114t-119.5 -39h-584v-48q0 -60 26 -90.5t83 -30.5h612v-111h-600
q-127 0 -174 80v-80h-666zM1544 496q0 39 -17.5 59.5t-59.5 20.5h-463q-42 0 -60 -20.5t-18 -59.5v-122h541q42 0 59.5 21t17.5 60v41zM790 300h-540q-42 0 -59.5 -20.5t-17.5 -59.5v-38q0 -40 17.5 -60.5t59.5 -20.5h540v199z" />
    <glyph glyph-name="ccedilla" unicode="&#xe7;" horiz-adv-x="912" 
d="M254 0q-106 0 -155.5 54t-49.5 166v237q0 112 49.5 166t155.5 54h608v-111h-583q-57 0 -83 -30t-26 -91v-213q0 -60 26 -90.5t83 -30.5h583v-111h-608zM404 -276l38 230h85l-73 -230h-50z" />
    <glyph glyph-name="egrave" unicode="&#xe8;" horiz-adv-x="976" 
d="M254 0q-106 0 -155.5 54t-49.5 166v304q0 75 35 114t121 39h563q85 0 119.5 -39t34.5 -114v-91q0 -75 -34.5 -114t-119.5 -39h-598v-48q0 -60 26 -90.5t83 -30.5h626v-111h-651zM802 496q0 39 -17.5 59.5t-59.5 20.5h-477q-42 0 -60 -20.5t-18 -59.5v-122h555
q42 0 59.5 21t17.5 60v41zM254 851v73l408 -149v-56z" />
    <glyph glyph-name="eacute" unicode="&#xe9;" horiz-adv-x="976" 
d="M254 0q-106 0 -155.5 54t-49.5 166v304q0 75 35 114t121 39h563q85 0 119.5 -39t34.5 -114v-91q0 -75 -34.5 -114t-119.5 -39h-598v-48q0 -60 26 -90.5t83 -30.5h626v-111h-651zM802 496q0 39 -17.5 59.5t-59.5 20.5h-477q-42 0 -60 -20.5t-18 -59.5v-122h555
q42 0 59.5 21t17.5 60v41zM314 719v56l408 149v-73z" />
    <glyph glyph-name="ecircumflex" unicode="&#xea;" horiz-adv-x="976" 
d="M254 0q-106 0 -155.5 54t-49.5 166v304q0 75 35 114t121 39h563q85 0 119.5 -39t34.5 -114v-91q0 -75 -34.5 -114t-119.5 -39h-598v-48q0 -60 26 -90.5t83 -30.5h626v-111h-651zM802 496q0 39 -17.5 59.5t-59.5 20.5h-477q-42 0 -60 -20.5t-18 -59.5v-122h555
q42 0 59.5 21t17.5 60v41zM652 719l-167 159l-163 -159h-74l217 205h43l219 -205h-75z" />
    <glyph glyph-name="edieresis" unicode="&#xeb;" horiz-adv-x="976" 
d="M254 0q-106 0 -155.5 54t-49.5 166v304q0 75 35 114t121 39h563q85 0 119.5 -39t34.5 -114v-91q0 -75 -34.5 -114t-119.5 -39h-598v-48q0 -60 26 -90.5t83 -30.5h626v-111h-651zM802 496q0 39 -17.5 59.5t-59.5 20.5h-477q-42 0 -60 -20.5t-18 -59.5v-122h555
q42 0 59.5 21t17.5 60v41zM584 735v156h90v-156h-90zM302 735v156h90v-156h-90z" />
    <glyph glyph-name="igrave" unicode="&#xec;" horiz-adv-x="234" 
d="M57 0v677h121v-677h-121zM-116 851v73l408 -149v-56z" />
    <glyph glyph-name="iacute" unicode="&#xed;" horiz-adv-x="234" 
d="M57 0v677h121v-677h-121zM-56 719v56l408 149v-73z" />
    <glyph glyph-name="icircumflex" unicode="&#xee;" horiz-adv-x="234" 
d="M57 0v677h121v-677h-121zM283 719l-167 159l-163 -159h-74l217 205h43l219 -205h-75z" />
    <glyph glyph-name="idieresis" unicode="&#xef;" horiz-adv-x="234" 
d="M57 0v677h121v-677h-121zM214 735v156h90v-156h-90zM-68 735v156h90v-156h-90z" />
    <glyph glyph-name="eth" unicode="&#xf0;" horiz-adv-x="977" 
d="M55 0v293h-43v94h43v290h645q64 0 107.5 -19.5t70 -56t38 -88t11.5 -115.5v-162q0 -108 -56 -172t-171 -64h-645zM175 293v-182h502q37 0 62 11.5t40 32.5t21.5 50t6.5 64v134q0 36 -6.5 66t-21.5 51.5t-40 33.5t-62 12h-502v-179h233v-94h-233z" />
    <glyph glyph-name="ntilde" unicode="&#xf1;" horiz-adv-x="966" 
d="M792 0v445q0 121 -108 121h-506v-566h-121v677h652q105 0 154 -54.5t49 -165.5v-457h-120zM228 791v69h470v-69h-470z" />
    <glyph glyph-name="ograve" unicode="&#xf2;" 
d="M254 0q-106 0 -155.5 54t-49.5 166v237q0 112 49.5 166t155.5 54h464q106 0 155 -54t49 -166v-237q0 -112 -49 -166t-155 -54h-464zM801 445q0 61 -25.5 91t-82.5 30h-414q-57 0 -83 -30t-26 -91v-213q0 -60 26 -90.5t83 -30.5h414q57 0 82.5 30.5t25.5 90.5v213z
M252 851v73l408 -149v-56z" />
    <glyph glyph-name="oacute" unicode="&#xf3;" 
d="M254 0q-106 0 -155.5 54t-49.5 166v237q0 112 49.5 166t155.5 54h464q106 0 155 -54t49 -166v-237q0 -112 -49 -166t-155 -54h-464zM801 445q0 61 -25.5 91t-82.5 30h-414q-57 0 -83 -30t-26 -91v-213q0 -60 26 -90.5t83 -30.5h414q57 0 82.5 30.5t25.5 90.5v213z
M312 719v56l408 149v-73z" />
    <glyph glyph-name="ocircumflex" unicode="&#xf4;" 
d="M254 0q-106 0 -155.5 54t-49.5 166v237q0 112 49.5 166t155.5 54h464q106 0 155 -54t49 -166v-237q0 -112 -49 -166t-155 -54h-464zM801 445q0 61 -25.5 91t-82.5 30h-414q-57 0 -83 -30t-26 -91v-213q0 -60 26 -90.5t83 -30.5h414q57 0 82.5 30.5t25.5 90.5v213z
M650 719l-167 159l-163 -159h-74l217 205h43l219 -205h-75z" />
    <glyph glyph-name="otilde" unicode="&#xf5;" 
d="M254 0q-106 0 -155.5 54t-49.5 166v237q0 112 49.5 166t155.5 54h464q106 0 155 -54t49 -166v-237q0 -112 -49 -166t-155 -54h-464zM801 445q0 61 -25.5 91t-82.5 30h-414q-57 0 -83 -30t-26 -91v-213q0 -60 26 -90.5t83 -30.5h414q57 0 82.5 30.5t25.5 90.5v213z
M251 791v69h470v-69h-470z" />
    <glyph glyph-name="odieresis" unicode="&#xf6;" 
d="M254 0q-106 0 -155.5 54t-49.5 166v237q0 112 49.5 166t155.5 54h464q106 0 155 -54t49 -166v-237q0 -112 -49 -166t-155 -54h-464zM801 445q0 61 -25.5 91t-82.5 30h-414q-57 0 -83 -30t-26 -91v-213q0 -60 26 -90.5t83 -30.5h414q57 0 82.5 30.5t25.5 90.5v213z
M582 735v156h90v-156h-90zM300 735v156h90v-156h-90z" />
    <glyph glyph-name="divide" unicode="&#xf7;" horiz-adv-x="623" 
d="M57 316v67h509v-67h-509zM253 500v178h116v-178h-116zM253 10v178h116v-178h-116z" />
    <glyph glyph-name="oslash" unicode="&#xf8;" 
d="M315 0l-42 -71h-61l42 71q-106 0 -155.5 54t-49.5 166v237q0 112 49.5 166t155.5 54h404l43 72h61l-43 -72q106 -1 154.5 -55t48.5 -165v-237q0 -112 -49 -166t-155 -54h-403zM170 232q0 -60 26 -90.5t83 -30.5h41l272 455h-313q-57 0 -83 -30t-26 -91v-213zM801 445
q0 61 -25.5 91t-82.5 30h-40l-272 -455h312q57 0 82.5 30.5t25.5 90.5v213z" />
    <glyph glyph-name="ugrave" unicode="&#xf9;" horiz-adv-x="960" 
d="M256 0q-203 0 -203 220v457h122v-445q0 -121 107 -121h501v566h119v-677h-646zM246 851v73l408 -149v-56z" />
    <glyph glyph-name="uacute" unicode="&#xfa;" horiz-adv-x="960" 
d="M256 0q-203 0 -203 220v457h122v-445q0 -121 107 -121h501v566h119v-677h-646zM306 719v56l408 149v-73z" />
    <glyph glyph-name="ucircumflex" unicode="&#xfb;" horiz-adv-x="960" 
d="M256 0q-203 0 -203 220v457h122v-445q0 -121 107 -121h501v566h119v-677h-646zM644 719l-167 159l-163 -159h-74l217 205h43l219 -205h-75z" />
    <glyph glyph-name="udieresis" unicode="&#xfc;" horiz-adv-x="960" 
d="M256 0q-203 0 -203 220v457h122v-445q0 -121 107 -121h501v566h119v-677h-646zM576 735v156h90v-156h-90zM294 735v156h90v-156h-90z" />
    <glyph glyph-name="yacute" unicode="&#xfd;" horiz-adv-x="1037" 
d="M460 0v231l-448 446h156l354 -353l353 353h150l-444 -448v-229h-121zM348 719v56l408 149v-73z" />
    <glyph glyph-name="thorn" unicode="&#xfe;" horiz-adv-x="946" 
d="M178 108v-108h-121v677h121v-112h576q85 0 119.5 -39.5t34.5 -114.5v-137q0 -44 -8 -75.5t-26 -51.5t-47.5 -29.5t-72.5 -9.5h-576zM788 391q0 40 -17.5 60.5t-59.5 20.5h-533v-276h533q42 0 59.5 20.5t17.5 66.5v108z" />
    <glyph glyph-name="ydieresis" unicode="&#xff;" horiz-adv-x="1037" 
d="M460 0v231l-448 446h156l354 -353l353 353h150l-444 -448v-229h-121zM617 735v156h90v-156h-90zM335 735v156h90v-156h-90z" />
    <glyph glyph-name="Amacron" unicode="&#x100;" horiz-adv-x="979" 
d="M207 0q-85 0 -119.5 39t-34.5 114v87q0 75 34.5 114t119.5 39h598v52q0 121 -108 121h-627v111h652q106 0 154.5 -54t48.5 -166v-457h-718zM805 300h-555q-42 0 -59.5 -20.5t-17.5 -59.5v-38q0 -40 17.5 -60.5t59.5 -20.5h555v199zM234 791v69h470v-69h-470z" />
    <glyph glyph-name="amacron" unicode="&#x101;" horiz-adv-x="979" 
d="M207 0q-85 0 -119.5 39t-34.5 114v87q0 75 34.5 114t119.5 39h598v52q0 121 -108 121h-627v111h652q106 0 154.5 -54t48.5 -166v-457h-718zM805 300h-555q-42 0 -59.5 -20.5t-17.5 -59.5v-38q0 -40 17.5 -60.5t59.5 -20.5h555v199zM234 791v69h470v-69h-470z" />
    <glyph glyph-name="Abreve" unicode="&#x102;" horiz-adv-x="979" 
d="M207 0q-85 0 -119.5 39t-34.5 114v87q0 75 34.5 114t119.5 39h598v52q0 121 -108 121h-627v111h652q106 0 154.5 -54t48.5 -166v-457h-718zM805 300h-555q-42 0 -59.5 -20.5t-17.5 -59.5v-38q0 -40 17.5 -60.5t59.5 -20.5h555v199zM678 924q-3 -44 -19.5 -81.5t-44.5 -65
t-65 -43t-80 -15.5t-80 15.5t-64.5 43t-44.5 65t-20 81.5h55q3 -36 16 -64.5t33.5 -48.5t47.5 -31t57 -11q31 0 58 11t48 31t33.5 48.5t14.5 64.5h55z" />
    <glyph glyph-name="abreve" unicode="&#x103;" horiz-adv-x="979" 
d="M207 0q-85 0 -119.5 39t-34.5 114v87q0 75 34.5 114t119.5 39h598v52q0 121 -108 121h-627v111h652q106 0 154.5 -54t48.5 -166v-457h-718zM805 300h-555q-42 0 -59.5 -20.5t-17.5 -59.5v-38q0 -40 17.5 -60.5t59.5 -20.5h555v199zM678 924q-3 -44 -19.5 -81.5t-44.5 -65
t-65 -43t-80 -15.5t-80 15.5t-64.5 43t-44.5 65t-20 81.5h55q3 -36 16 -64.5t33.5 -48.5t47.5 -31t57 -11q31 0 58 11t48 31t33.5 48.5t14.5 64.5h55z" />
    <glyph glyph-name="Aogonek" unicode="&#x104;" horiz-adv-x="979" 
d="M795 -276q-45 0 -71.5 26t-26.5 62q0 21 11.5 43t36.5 42l129 103h-667q-85 0 -119.5 39t-34.5 114v87q0 75 34.5 114t119.5 39h598v52q0 121 -108 121h-627v111h652q106 0 154.5 -54t48.5 -166v-457l-131 -107q-22 -19 -22 -43q0 -18 12 -30.5t34 -12.5h107v-83h-130z
M805 300h-555q-42 0 -59.5 -20.5t-17.5 -59.5v-38q0 -40 17.5 -60.5t59.5 -20.5h555v199z" />
    <glyph glyph-name="aogonek" unicode="&#x105;" horiz-adv-x="979" 
d="M795 -276q-45 0 -71.5 26t-26.5 62q0 21 11.5 43t36.5 42l129 103h-667q-85 0 -119.5 39t-34.5 114v87q0 75 34.5 114t119.5 39h598v52q0 121 -108 121h-627v111h652q106 0 154.5 -54t48.5 -166v-457l-131 -107q-22 -19 -22 -43q0 -18 12 -30.5t34 -12.5h107v-83h-130z
M805 300h-555q-42 0 -59.5 -20.5t-17.5 -59.5v-38q0 -40 17.5 -60.5t59.5 -20.5h555v199z" />
    <glyph glyph-name="Cacute" unicode="&#x106;" horiz-adv-x="912" 
d="M254 0q-106 0 -155.5 54t-49.5 166v237q0 112 49.5 166t155.5 54h608v-111h-583q-57 0 -83 -30t-26 -91v-213q0 -60 26 -90.5t83 -30.5h583v-111h-608zM282 719v56l408 149v-73z" />
    <glyph glyph-name="cacute" unicode="&#x107;" horiz-adv-x="912" 
d="M254 0q-106 0 -155.5 54t-49.5 166v237q0 112 49.5 166t155.5 54h608v-111h-583q-57 0 -83 -30t-26 -91v-213q0 -60 26 -90.5t83 -30.5h583v-111h-608zM282 719v56l408 149v-73z" />
    <glyph glyph-name="Ccircumflex" unicode="&#x108;" horiz-adv-x="912" 
d="M254 0q-106 0 -155.5 54t-49.5 166v237q0 112 49.5 166t155.5 54h608v-111h-583q-57 0 -83 -30t-26 -91v-213q0 -60 26 -90.5t83 -30.5h583v-111h-608zM650 719l-167 159l-163 -159h-74l217 205h43l219 -205h-75z" />
    <glyph glyph-name="ccircumflex" unicode="&#x109;" horiz-adv-x="912" 
d="M254 0q-106 0 -155.5 54t-49.5 166v237q0 112 49.5 166t155.5 54h608v-111h-583q-57 0 -83 -30t-26 -91v-213q0 -60 26 -90.5t83 -30.5h583v-111h-608zM650 719l-167 159l-163 -159h-74l217 205h43l219 -205h-75z" />
    <glyph glyph-name="Cdotaccent" unicode="&#x10a;" horiz-adv-x="912" 
d="M254 0q-106 0 -155.5 54t-49.5 166v237q0 112 49.5 166t155.5 54h608v-111h-583q-57 0 -83 -30t-26 -91v-213q0 -60 26 -90.5t83 -30.5h583v-111h-608zM456 735v156h90v-156h-90z" />
    <glyph glyph-name="cdotaccent" unicode="&#x10b;" horiz-adv-x="912" 
d="M254 0q-106 0 -155.5 54t-49.5 166v237q0 112 49.5 166t155.5 54h608v-111h-583q-57 0 -83 -30t-26 -91v-213q0 -60 26 -90.5t83 -30.5h583v-111h-608zM456 735v156h90v-156h-90z" />
    <glyph glyph-name="Ccaron" unicode="&#x10c;" horiz-adv-x="912" 
d="M254 0q-106 0 -155.5 54t-49.5 166v237q0 112 49.5 166t155.5 54h608v-111h-583q-57 0 -83 -30t-26 -91v-213q0 -60 26 -90.5t83 -30.5h583v-111h-608zM508 719h-43l-219 205h75l167 -159l164 159h73z" />
    <glyph glyph-name="ccaron" unicode="&#x10d;" horiz-adv-x="912" 
d="M254 0q-106 0 -155.5 54t-49.5 166v237q0 112 49.5 166t155.5 54h608v-111h-583q-57 0 -83 -30t-26 -91v-213q0 -60 26 -90.5t83 -30.5h583v-111h-608zM508 719h-43l-219 205h75l167 -159l164 159h73z" />
    <glyph glyph-name="Dcaron" unicode="&#x10e;" horiz-adv-x="979" 
d="M809 396q0 37 -6 68.5t-21 54t-40 35t-63 12.5h-501v-455h466q82 0 123.5 31.5t41.5 103.5v150zM57 0v677h645q114 0 171 -65.5t57 -176.5v-199q0 -108 -56.5 -172t-171.5 -64h-645zM472 719h-43l-219 205h75l167 -159l164 159h73z" />
    <glyph glyph-name="dcaron" unicode="&#x10f;" horiz-adv-x="979" 
d="M809 396q0 37 -6 68.5t-21 54t-40 35t-63 12.5h-501v-455h466q82 0 123.5 31.5t41.5 103.5v150zM57 0v677h645q114 0 171 -65.5t57 -176.5v-199q0 -108 -56.5 -172t-171.5 -64h-645zM472 719h-43l-219 205h75l167 -159l164 159h73z" />
    <glyph glyph-name="Dcroat" unicode="&#x110;" horiz-adv-x="977" 
d="M55 0v293h-43v94h43v290h645q64 0 107.5 -19.5t70 -56t38 -88t11.5 -115.5v-162q0 -108 -56 -172t-171 -64h-645zM175 293v-182h502q37 0 62 11.5t40 32.5t21.5 50t6.5 64v134q0 36 -6.5 66t-21.5 51.5t-40 33.5t-62 12h-502v-179h233v-94h-233z" />
    <glyph glyph-name="dcroat" unicode="&#x111;" horiz-adv-x="977" 
d="M55 0v293h-43v94h43v290h645q64 0 107.5 -19.5t70 -56t38 -88t11.5 -115.5v-162q0 -108 -56 -172t-171 -64h-645zM175 293v-182h502q37 0 62 11.5t40 32.5t21.5 50t6.5 64v134q0 36 -6.5 66t-21.5 51.5t-40 33.5t-62 12h-502v-179h233v-94h-233z" />
    <glyph glyph-name="Emacron" unicode="&#x112;" horiz-adv-x="976" 
d="M254 0q-106 0 -155.5 54t-49.5 166v304q0 75 35 114t121 39h563q85 0 119.5 -39t34.5 -114v-91q0 -75 -34.5 -114t-119.5 -39h-598v-48q0 -60 26 -90.5t83 -30.5h626v-111h-651zM802 496q0 39 -17.5 59.5t-59.5 20.5h-477q-42 0 -60 -20.5t-18 -59.5v-122h555
q42 0 59.5 21t17.5 60v41zM253 791v69h470v-69h-470z" />
    <glyph glyph-name="emacron" unicode="&#x113;" horiz-adv-x="976" 
d="M254 0q-106 0 -155.5 54t-49.5 166v304q0 75 35 114t121 39h563q85 0 119.5 -39t34.5 -114v-91q0 -75 -34.5 -114t-119.5 -39h-598v-48q0 -60 26 -90.5t83 -30.5h626v-111h-651zM802 496q0 39 -17.5 59.5t-59.5 20.5h-477q-42 0 -60 -20.5t-18 -59.5v-122h555
q42 0 59.5 21t17.5 60v41zM253 791v69h470v-69h-470z" />
    <glyph glyph-name="Ebreve" unicode="&#x114;" horiz-adv-x="976" 
d="M254 0q-106 0 -155.5 54t-49.5 166v304q0 75 35 114t121 39h563q85 0 119.5 -39t34.5 -114v-91q0 -75 -34.5 -114t-119.5 -39h-598v-48q0 -60 26 -90.5t83 -30.5h626v-111h-651zM802 496q0 39 -17.5 59.5t-59.5 20.5h-477q-42 0 -60 -20.5t-18 -59.5v-122h555
q42 0 59.5 21t17.5 60v41zM697 924q-3 -44 -19.5 -81.5t-44.5 -65t-65 -43t-80 -15.5t-80 15.5t-64.5 43t-44.5 65t-20 81.5h55q3 -36 16 -64.5t33.5 -48.5t47.5 -31t57 -11q31 0 58 11t48 31t33.5 48.5t14.5 64.5h55z" />
    <glyph glyph-name="ebreve" unicode="&#x115;" horiz-adv-x="976" 
d="M254 0q-106 0 -155.5 54t-49.5 166v304q0 75 35 114t121 39h563q85 0 119.5 -39t34.5 -114v-91q0 -75 -34.5 -114t-119.5 -39h-598v-48q0 -60 26 -90.5t83 -30.5h626v-111h-651zM802 496q0 39 -17.5 59.5t-59.5 20.5h-477q-42 0 -60 -20.5t-18 -59.5v-122h555
q42 0 59.5 21t17.5 60v41zM697 924q-3 -44 -19.5 -81.5t-44.5 -65t-65 -43t-80 -15.5t-80 15.5t-64.5 43t-44.5 65t-20 81.5h55q3 -36 16 -64.5t33.5 -48.5t47.5 -31t57 -11q31 0 58 11t48 31t33.5 48.5t14.5 64.5h55z" />
    <glyph glyph-name="Edotaccent" unicode="&#x116;" horiz-adv-x="976" 
d="M254 0q-106 0 -155.5 54t-49.5 166v304q0 75 35 114t121 39h563q85 0 119.5 -39t34.5 -114v-91q0 -75 -34.5 -114t-119.5 -39h-598v-48q0 -60 26 -90.5t83 -30.5h626v-111h-651zM802 496q0 39 -17.5 59.5t-59.5 20.5h-477q-42 0 -60 -20.5t-18 -59.5v-122h555
q42 0 59.5 21t17.5 60v41zM443 735v156h90v-156h-90z" />
    <glyph glyph-name="edotaccent" unicode="&#x117;" horiz-adv-x="976" 
d="M254 0q-106 0 -155.5 54t-49.5 166v304q0 75 35 114t121 39h563q85 0 119.5 -39t34.5 -114v-91q0 -75 -34.5 -114t-119.5 -39h-598v-48q0 -60 26 -90.5t83 -30.5h626v-111h-651zM802 496q0 39 -17.5 59.5t-59.5 20.5h-477q-42 0 -60 -20.5t-18 -59.5v-122h555
q42 0 59.5 21t17.5 60v41zM443 735v156h90v-156h-90z" />
    <glyph glyph-name="Eogonek" unicode="&#x118;" horiz-adv-x="976" 
d="M775 -276q-45 0 -71.5 26t-26.5 62q0 21 11.5 43t36.5 42l129 103h-600q-106 0 -155.5 54t-49.5 166v304q0 75 35 114t121 39h563q85 0 119.5 -39t34.5 -114v-91q0 -75 -34.5 -114t-119.5 -39h-598v-48q0 -60 26 -90.5t83 -30.5h626v-111l-131 -107q-22 -19 -22 -43
q0 -18 12 -30.5t34 -12.5h107v-83h-130zM802 496q0 39 -17.5 59.5t-59.5 20.5h-477q-42 0 -60 -20.5t-18 -59.5v-122h555q42 0 59.5 21t17.5 60v41z" />
    <glyph glyph-name="eogonek" unicode="&#x119;" horiz-adv-x="976" 
d="M775 -276q-45 0 -71.5 26t-26.5 62q0 21 11.5 43t36.5 42l129 103h-600q-106 0 -155.5 54t-49.5 166v304q0 75 35 114t121 39h563q85 0 119.5 -39t34.5 -114v-91q0 -75 -34.5 -114t-119.5 -39h-598v-48q0 -60 26 -90.5t83 -30.5h626v-111l-131 -107q-22 -19 -22 -43
q0 -18 12 -30.5t34 -12.5h107v-83h-130zM802 496q0 39 -17.5 59.5t-59.5 20.5h-477q-42 0 -60 -20.5t-18 -59.5v-122h555q42 0 59.5 21t17.5 60v41z" />
    <glyph glyph-name="Ecaron" unicode="&#x11a;" horiz-adv-x="976" 
d="M254 0q-106 0 -155.5 54t-49.5 166v304q0 75 35 114t121 39h563q85 0 119.5 -39t34.5 -114v-91q0 -75 -34.5 -114t-119.5 -39h-598v-48q0 -60 26 -90.5t83 -30.5h626v-111h-651zM802 496q0 39 -17.5 59.5t-59.5 20.5h-477q-42 0 -60 -20.5t-18 -59.5v-122h555
q42 0 59.5 21t17.5 60v41zM510 719h-43l-219 205h75l167 -159l164 159h73z" />
    <glyph glyph-name="ecaron" unicode="&#x11b;" horiz-adv-x="976" 
d="M254 0q-106 0 -155.5 54t-49.5 166v304q0 75 35 114t121 39h563q85 0 119.5 -39t34.5 -114v-91q0 -75 -34.5 -114t-119.5 -39h-598v-48q0 -60 26 -90.5t83 -30.5h626v-111h-651zM802 496q0 39 -17.5 59.5t-59.5 20.5h-477q-42 0 -60 -20.5t-18 -59.5v-122h555
q42 0 59.5 21t17.5 60v41zM510 719h-43l-219 205h75l167 -159l164 159h73z" />
    <glyph glyph-name="Gcircumflex" unicode="&#x11c;" 
d="M205 0q-86 0 -121 42.5t-35 136.5v278q0 112 49.5 166t155.5 54h645v-111h-620q-57 0 -83 -30t-26 -91v-250q0 -49 18 -71.5t60 -22.5h547v268h120v-369h-710zM670 719l-167 159l-163 -159h-74l217 205h43l219 -205h-75z" />
    <glyph glyph-name="gcircumflex" unicode="&#x11d;" 
d="M205 0q-86 0 -121 42.5t-35 136.5v278q0 112 49.5 166t155.5 54h645v-111h-620q-57 0 -83 -30t-26 -91v-250q0 -49 18 -71.5t60 -22.5h547v268h120v-369h-710zM670 719l-167 159l-163 -159h-74l217 205h43l219 -205h-75z" />
    <glyph glyph-name="Gbreve" unicode="&#x11e;" 
d="M205 0q-86 0 -121 42.5t-35 136.5v278q0 112 49.5 166t155.5 54h645v-111h-620q-57 0 -83 -30t-26 -91v-250q0 -49 18 -71.5t60 -22.5h547v268h120v-369h-710zM720 924q-3 -44 -19.5 -81.5t-44.5 -65t-65 -43t-80 -15.5t-80 15.5t-64.5 43t-44.5 65t-20 81.5h55
q3 -36 16 -64.5t33.5 -48.5t47.5 -31t57 -11q31 0 58 11t48 31t33.5 48.5t14.5 64.5h55z" />
    <glyph glyph-name="gbreve" unicode="&#x11f;" 
d="M205 0q-86 0 -121 42.5t-35 136.5v278q0 112 49.5 166t155.5 54h645v-111h-620q-57 0 -83 -30t-26 -91v-250q0 -49 18 -71.5t60 -22.5h547v268h120v-369h-710zM720 924q-3 -44 -19.5 -81.5t-44.5 -65t-65 -43t-80 -15.5t-80 15.5t-64.5 43t-44.5 65t-20 81.5h55
q3 -36 16 -64.5t33.5 -48.5t47.5 -31t57 -11q31 0 58 11t48 31t33.5 48.5t14.5 64.5h55z" />
    <glyph glyph-name="Gdotaccent" unicode="&#x120;" 
d="M205 0q-86 0 -121 42.5t-35 136.5v278q0 112 49.5 166t155.5 54h645v-111h-620q-57 0 -83 -30t-26 -91v-250q0 -49 18 -71.5t60 -22.5h547v268h120v-369h-710zM467 735v156h90v-156h-90z" />
    <glyph glyph-name="gdotaccent" unicode="&#x121;" 
d="M205 0q-86 0 -121 42.5t-35 136.5v278q0 112 49.5 166t155.5 54h645v-111h-620q-57 0 -83 -30t-26 -91v-250q0 -49 18 -71.5t60 -22.5h547v268h120v-369h-710zM467 735v156h90v-156h-90z" />
    <glyph glyph-name="uni0122" unicode="&#x122;" 
d="M205 0q-86 0 -121 42.5t-35 136.5v278q0 112 49.5 166t155.5 54h645v-111h-620q-57 0 -83 -30t-26 -91v-250q0 -49 18 -71.5t60 -22.5h547v268h120v-369h-710zM416 -276l38 230h85l-73 -230h-50z" />
    <glyph glyph-name="uni0123" unicode="&#x123;" 
d="M205 0q-86 0 -121 42.5t-35 136.5v278q0 112 49.5 166t155.5 54h645v-111h-620q-57 0 -83 -30t-26 -91v-250q0 -49 18 -71.5t60 -22.5h547v268h120v-369h-710zM416 -276l38 230h85l-73 -230h-50z" />
    <glyph glyph-name="Hcircumflex" unicode="&#x124;" horiz-adv-x="952" 
d="M774 0v302h-596v-302h-121v677h121v-271h596v271h120v-677h-120zM640 719l-167 159l-163 -159h-74l217 205h43l219 -205h-75z" />
    <glyph glyph-name="hcircumflex" unicode="&#x125;" horiz-adv-x="952" 
d="M774 0v302h-596v-302h-121v677h121v-271h596v271h120v-677h-120zM640 719l-167 159l-163 -159h-74l217 205h43l219 -205h-75z" />
    <glyph glyph-name="Hbar" unicode="&#x126;" horiz-adv-x="952" 
d="M774 0v302h-596v-302h-121v677h121v-97h596v97h120v-677h-120zM774 406v105h-596v-105h596z" />
    <glyph glyph-name="hbar" unicode="&#x127;" horiz-adv-x="952" 
d="M774 0v302h-596v-302h-121v677h121v-97h596v97h120v-677h-120zM774 406v105h-596v-105h596z" />
    <glyph glyph-name="Itilde" unicode="&#x128;" horiz-adv-x="234" 
d="M57 0v677h121v-677h-121zM-117 791v69h470v-69h-470z" />
    <glyph glyph-name="itilde" unicode="&#x129;" horiz-adv-x="234" 
d="M57 0v677h121v-677h-121zM-117 791v69h470v-69h-470z" />
    <glyph glyph-name="Imacron" unicode="&#x12a;" horiz-adv-x="234" 
d="M57 0v677h121v-677h-121zM-117 791v69h470v-69h-470z" />
    <glyph glyph-name="imacron" unicode="&#x12b;" horiz-adv-x="234" 
d="M57 0v677h121v-677h-121zM-117 791v69h470v-69h-470z" />
    <glyph glyph-name="Ibreve" unicode="&#x12c;" horiz-adv-x="234" 
d="M57 0v677h121v-677h-121zM327 924q-3 -44 -19.5 -81.5t-44.5 -65t-65 -43t-80 -15.5t-80 15.5t-64.5 43t-44.5 65t-20 81.5h55q3 -36 16 -64.5t33.5 -48.5t47.5 -31t57 -11q31 0 58 11t48 31t33.5 48.5t14.5 64.5h55z" />
    <glyph glyph-name="ibreve" unicode="&#x12d;" horiz-adv-x="234" 
d="M57 0v677h121v-677h-121zM327 924q-3 -44 -19.5 -81.5t-44.5 -65t-65 -43t-80 -15.5t-80 15.5t-64.5 43t-44.5 65t-20 81.5h55q3 -36 16 -64.5t33.5 -48.5t47.5 -31t57 -11q31 0 58 11t48 31t33.5 48.5t14.5 64.5h55z" />
    <glyph glyph-name="Iogonek" unicode="&#x12e;" horiz-adv-x="234" 
d="M48 -276q-45 0 -71.5 26t-26.5 62q0 21 11.5 43t36.5 42l129 103h-70v677h121v-677l-131 -107q-22 -19 -22 -43q0 -18 12 -30.5t34 -12.5h107v-83h-130z" />
    <glyph glyph-name="iogonek" unicode="&#x12f;" horiz-adv-x="234" 
d="M48 -276q-45 0 -71.5 26t-26.5 62q0 21 11.5 43t36.5 42l129 103h-70v677h121v-677l-131 -107q-22 -19 -22 -43q0 -18 12 -30.5t34 -12.5h107v-83h-130z" />
    <glyph glyph-name="Idotaccent" unicode="&#x130;" horiz-adv-x="234" 
d="M57 0v677h121v-677h-121zM72 735v156h90v-156h-90z" />
    <glyph glyph-name="dotlessi" unicode="&#x131;" horiz-adv-x="234" 
d="M57 0v677h121v-677h-121z" />
    <glyph glyph-name="IJ" unicode="&#x132;" horiz-adv-x="957" 
d="M57 0v677h121v-677h-121zM259 0v111h415q57 0 82.5 30.5t25.5 90.5v445h121v-457q0 -112 -49 -166t-155 -54h-440z" />
    <glyph glyph-name="ij" unicode="&#x133;" horiz-adv-x="957" 
d="M57 0v677h121v-677h-121zM259 0v111h415q57 0 82.5 30.5t25.5 90.5v445h121v-457q0 -112 -49 -166t-155 -54h-440z" />
    <glyph glyph-name="Jcircumflex" unicode="&#x134;" horiz-adv-x="723" 
d="M25 0v111h415q57 0 82.5 30.5t25.5 90.5v445h121v-457q0 -112 -49 -166t-155 -54h-440zM588 719l-167 159l-163 -159h-74l217 205h43l219 -205h-75z" />
    <glyph glyph-name="jcircumflex" unicode="&#x135;" horiz-adv-x="723" 
d="M25 0v111h415q57 0 82.5 30.5t25.5 90.5v445h121v-457q0 -112 -49 -166t-155 -54h-440zM588 719l-167 159l-163 -159h-74l217 205h43l219 -205h-75z" />
    <glyph glyph-name="uni0136" unicode="&#x136;" horiz-adv-x="965" 
d="M798 0l-342 300h-279v-300h-120v677h120v-286h281l329 286h147l-366 -326l384 -351h-154zM401 -276l38 230h85l-73 -230h-50z" />
    <glyph glyph-name="uni0137" unicode="&#x137;" horiz-adv-x="965" 
d="M798 0l-342 300h-279v-300h-120v677h120v-286h281l329 286h147l-366 -326l384 -351h-154zM401 -276l38 230h85l-73 -230h-50z" />
    <glyph glyph-name="Lacute" unicode="&#x139;" horiz-adv-x="811" 
d="M256 0q-105 0 -154 54t-49 166v457h121v-445q0 -121 107 -121h505v-111h-530zM-58 719v56l408 149v-73z" />
    <glyph glyph-name="lacute" unicode="&#x13a;" horiz-adv-x="811" 
d="M256 0q-105 0 -154 54t-49 166v457h121v-445q0 -121 107 -121h505v-111h-530zM-58 719v56l408 149v-73z" />
    <glyph glyph-name="uni013B" unicode="&#x13b;" horiz-adv-x="811" 
d="M256 0q-105 0 -154 54t-49 166v457h121v-445q0 -121 107 -121h505v-111h-530zM360 -276l38 230h85l-73 -230h-50z" />
    <glyph glyph-name="uni013C" unicode="&#x13c;" horiz-adv-x="811" 
d="M256 0q-105 0 -154 54t-49 166v457h121v-445q0 -121 107 -121h505v-111h-530zM360 -276l38 230h85l-73 -230h-50z" />
    <glyph glyph-name="Lcaron" unicode="&#x13d;" horiz-adv-x="811" 
d="M256 0q-105 0 -154 54t-49 166v457h121v-445q0 -121 107 -121h505v-111h-530zM311 371l39 306h86l-74 -306h-51z" />
    <glyph glyph-name="lcaron" unicode="&#x13e;" horiz-adv-x="811" 
d="M256 0q-105 0 -154 54t-49 166v457h121v-445q0 -121 107 -121h505v-111h-530zM311 371l39 306h86l-74 -306h-51z" />
    <glyph glyph-name="Ldot" unicode="&#x13f;" horiz-adv-x="811" 
d="M256 0q-105 0 -154 54t-49 166v457h121v-445q0 -121 107 -121h505v-111h-530zM280 300v156h90v-156h-90z" />
    <glyph glyph-name="ldot" unicode="&#x140;" horiz-adv-x="811" 
d="M256 0q-105 0 -154 54t-49 166v457h121v-445q0 -121 107 -121h505v-111h-530zM280 300v156h90v-156h-90z" />
    <glyph glyph-name="Lslash" unicode="&#x141;" horiz-adv-x="811" 
d="M256 0q-105 0 -154 54t-49 166v457h121v-268l310 136v-79l-310 -134v-100q0 -121 107 -121h505v-111h-530z" />
    <glyph glyph-name="lslash" unicode="&#x142;" horiz-adv-x="811" 
d="M256 0q-105 0 -154 54t-49 166v457h121v-268l310 136v-79l-310 -134v-100q0 -121 107 -121h505v-111h-530z" />
    <glyph glyph-name="Nacute" unicode="&#x143;" horiz-adv-x="966" 
d="M792 0v445q0 121 -108 121h-506v-566h-121v677h652q105 0 154 -54.5t49 -165.5v-457h-120zM309 719v56l408 149v-73z" />
    <glyph glyph-name="nacute" unicode="&#x144;" horiz-adv-x="966" 
d="M792 0v445q0 121 -108 121h-506v-566h-121v677h652q105 0 154 -54.5t49 -165.5v-457h-120zM309 719v56l408 149v-73z" />
    <glyph glyph-name="uni0145" unicode="&#x145;" horiz-adv-x="966" 
d="M792 0v445q0 121 -108 121h-506v-566h-121v677h652q105 0 154 -54.5t49 -165.5v-457h-120zM421 -276l38 230h85l-73 -230h-50z" />
    <glyph glyph-name="uni0146" unicode="&#x146;" horiz-adv-x="966" 
d="M792 0v445q0 121 -108 121h-506v-566h-121v677h652q105 0 154 -54.5t49 -165.5v-457h-120zM421 -276l38 230h85l-73 -230h-50z" />
    <glyph glyph-name="Ncaron" unicode="&#x147;" horiz-adv-x="966" 
d="M792 0v445q0 121 -108 121h-506v-566h-121v677h652q105 0 154 -54.5t49 -165.5v-457h-120zM480 719h-43l-219 205h75l167 -159l164 159h73z" />
    <glyph glyph-name="ncaron" unicode="&#x148;" horiz-adv-x="966" 
d="M792 0v445q0 121 -108 121h-506v-566h-121v677h652q105 0 154 -54.5t49 -165.5v-457h-120zM480 719h-43l-219 205h75l167 -159l164 159h73z" />
    <glyph glyph-name="Eng" unicode="&#x14a;" horiz-adv-x="966" 
d="M491 -275v111h192q109 0 109 121v488q0 121 -108 121h-506v-566h-121v677h652q105 0 154 -54.5t49 -165.5v-512q0 -112 -49 -166t-155 -54h-217z" />
    <glyph glyph-name="eng" unicode="&#x14b;" horiz-adv-x="966" 
d="M491 -275v111h192q109 0 109 121v488q0 121 -108 121h-506v-566h-121v677h652q105 0 154 -54.5t49 -165.5v-512q0 -112 -49 -166t-155 -54h-217z" />
    <glyph glyph-name="Omacron" unicode="&#x14c;" 
d="M254 0q-106 0 -155.5 54t-49.5 166v237q0 112 49.5 166t155.5 54h464q106 0 155 -54t49 -166v-237q0 -112 -49 -166t-155 -54h-464zM801 445q0 61 -25.5 91t-82.5 30h-414q-57 0 -83 -30t-26 -91v-213q0 -60 26 -90.5t83 -30.5h414q57 0 82.5 30.5t25.5 90.5v213z
M251 791v69h470v-69h-470z" />
    <glyph glyph-name="omacron" unicode="&#x14d;" 
d="M254 0q-106 0 -155.5 54t-49.5 166v237q0 112 49.5 166t155.5 54h464q106 0 155 -54t49 -166v-237q0 -112 -49 -166t-155 -54h-464zM801 445q0 61 -25.5 91t-82.5 30h-414q-57 0 -83 -30t-26 -91v-213q0 -60 26 -90.5t83 -30.5h414q57 0 82.5 30.5t25.5 90.5v213z
M251 791v69h470v-69h-470z" />
    <glyph glyph-name="Obreve" unicode="&#x14e;" 
d="M254 0q-106 0 -155.5 54t-49.5 166v237q0 112 49.5 166t155.5 54h464q106 0 155 -54t49 -166v-237q0 -112 -49 -166t-155 -54h-464zM801 445q0 61 -25.5 91t-82.5 30h-414q-57 0 -83 -30t-26 -91v-213q0 -60 26 -90.5t83 -30.5h414q57 0 82.5 30.5t25.5 90.5v213z
M695 924q-3 -44 -19.5 -81.5t-44.5 -65t-65 -43t-80 -15.5t-80 15.5t-64.5 43t-44.5 65t-20 81.5h55q3 -36 16 -64.5t33.5 -48.5t47.5 -31t57 -11q31 0 58 11t48 31t33.5 48.5t14.5 64.5h55z" />
    <glyph glyph-name="obreve" unicode="&#x14f;" 
d="M254 0q-106 0 -155.5 54t-49.5 166v237q0 112 49.5 166t155.5 54h464q106 0 155 -54t49 -166v-237q0 -112 -49 -166t-155 -54h-464zM801 445q0 61 -25.5 91t-82.5 30h-414q-57 0 -83 -30t-26 -91v-213q0 -60 26 -90.5t83 -30.5h414q57 0 82.5 30.5t25.5 90.5v213z
M695 924q-3 -44 -19.5 -81.5t-44.5 -65t-65 -43t-80 -15.5t-80 15.5t-64.5 43t-44.5 65t-20 81.5h55q3 -36 16 -64.5t33.5 -48.5t47.5 -31t57 -11q31 0 58 11t48 31t33.5 48.5t14.5 64.5h55z" />
    <glyph glyph-name="Ohungarumlaut" unicode="&#x150;" 
d="M254 0q-106 0 -155.5 54t-49.5 166v237q0 112 49.5 166t155.5 54h464q106 0 155 -54t49 -166v-237q0 -112 -49 -166t-155 -54h-464zM801 445q0 61 -25.5 91t-82.5 30h-414q-57 0 -83 -30t-26 -91v-213q0 -60 26 -90.5t83 -30.5h414q57 0 82.5 30.5t25.5 90.5v213z
M574 720l145 204h65l-152 -204h-58zM347 720l142 204h66l-150 -204h-58z" />
    <glyph glyph-name="ohungarumlaut" unicode="&#x151;" 
d="M254 0q-106 0 -155.5 54t-49.5 166v237q0 112 49.5 166t155.5 54h464q106 0 155 -54t49 -166v-237q0 -112 -49 -166t-155 -54h-464zM801 445q0 61 -25.5 91t-82.5 30h-414q-57 0 -83 -30t-26 -91v-213q0 -60 26 -90.5t83 -30.5h414q57 0 82.5 30.5t25.5 90.5v213z
M574 720l145 204h65l-152 -204h-58zM347 720l142 204h66l-150 -204h-58z" />
    <glyph glyph-name="OE" unicode="&#x152;" horiz-adv-x="1713" 
d="M254 0q-106 0 -155.5 54t-49.5 166v237q0 112 49.5 166t155.5 54h412q131 0 177 -88q13 43 47.5 65.5t100.5 22.5h514q85 0 119.5 -39t34.5 -114v-91q0 -75 -34.5 -114t-119.5 -39h-583v-48q0 -60 26 -90.5t83 -30.5h611v-111h-602q-148 0 -188 108q-41 -108 -186 -108
h-412zM788 445q0 61 -25.5 91t-82.5 30h-401q-57 0 -83 -30t-26 -91v-213q0 -60 26 -90.5t83 -30.5h401q57 0 82.5 30.5t25.5 90.5v213zM1539 496q0 39 -17.5 59.5t-59.5 20.5h-462q-42 0 -60 -20.5t-18 -59.5v-122h540q42 0 59.5 21t17.5 60v41z" />
    <glyph glyph-name="oe" unicode="&#x153;" horiz-adv-x="1713" 
d="M254 0q-106 0 -155.5 54t-49.5 166v237q0 112 49.5 166t155.5 54h412q131 0 177 -88q13 43 47.5 65.5t100.5 22.5h514q85 0 119.5 -39t34.5 -114v-91q0 -75 -34.5 -114t-119.5 -39h-583v-48q0 -60 26 -90.5t83 -30.5h611v-111h-602q-148 0 -188 108q-41 -108 -186 -108
h-412zM788 445q0 61 -25.5 91t-82.5 30h-401q-57 0 -83 -30t-26 -91v-213q0 -60 26 -90.5t83 -30.5h401q57 0 82.5 30.5t25.5 90.5v213zM1539 496q0 39 -17.5 59.5t-59.5 20.5h-462q-42 0 -60 -20.5t-18 -59.5v-122h540q42 0 59.5 21t17.5 60v41z" />
    <glyph glyph-name="Racute" unicode="&#x154;" horiz-adv-x="975" 
d="M832 0q-8 6 -12.5 16t-4.5 28v125q0 45 -26 62.5t-68 17.5h-543v-249h-121v677h714q85 0 119.5 -39t34.5 -114v-84q0 -44 -10.5 -70t-26 -40.5t-34 -20t-33.5 -7.5q17 -2 37 -7.5t37 -20t28.5 -39.5t11.5 -66v-125q0 -18 4.5 -28t12.5 -16h-120zM805 496q0 39 -17.5 59.5
t-59.5 20.5h-550v-234h540q39 0 63 17t24 62v75zM313 719v56l408 149v-73z" />
    <glyph glyph-name="racute" unicode="&#x155;" horiz-adv-x="975" 
d="M832 0q-8 6 -12.5 16t-4.5 28v125q0 45 -26 62.5t-68 17.5h-543v-249h-121v677h714q85 0 119.5 -39t34.5 -114v-84q0 -44 -10.5 -70t-26 -40.5t-34 -20t-33.5 -7.5q17 -2 37 -7.5t37 -20t28.5 -39.5t11.5 -66v-125q0 -18 4.5 -28t12.5 -16h-120zM805 496q0 39 -17.5 59.5
t-59.5 20.5h-550v-234h540q39 0 63 17t24 62v75zM313 719v56l408 149v-73z" />
    <glyph glyph-name="uni0156" unicode="&#x156;" horiz-adv-x="975" 
d="M832 0q-8 6 -12.5 16t-4.5 28v125q0 45 -26 62.5t-68 17.5h-543v-249h-121v677h714q85 0 119.5 -39t34.5 -114v-84q0 -44 -10.5 -70t-26 -40.5t-34 -20t-33.5 -7.5q17 -2 37 -7.5t37 -20t28.5 -39.5t11.5 -66v-125q0 -18 4.5 -28t12.5 -16h-120zM805 496q0 39 -17.5 59.5
t-59.5 20.5h-550v-234h540q39 0 63 17t24 62v75zM426 -276l38 230h85l-73 -230h-50z" />
    <glyph glyph-name="uni0157" unicode="&#x157;" horiz-adv-x="975" 
d="M832 0q-8 6 -12.5 16t-4.5 28v125q0 45 -26 62.5t-68 17.5h-543v-249h-121v677h714q85 0 119.5 -39t34.5 -114v-84q0 -44 -10.5 -70t-26 -40.5t-34 -20t-33.5 -7.5q17 -2 37 -7.5t37 -20t28.5 -39.5t11.5 -66v-125q0 -18 4.5 -28t12.5 -16h-120zM805 496q0 39 -17.5 59.5
t-59.5 20.5h-550v-234h540q39 0 63 17t24 62v75zM426 -276l38 230h85l-73 -230h-50z" />
    <glyph glyph-name="Rcaron" unicode="&#x158;" horiz-adv-x="975" 
d="M832 0q-8 6 -12.5 16t-4.5 28v125q0 45 -26 62.5t-68 17.5h-543v-249h-121v677h714q85 0 119.5 -39t34.5 -114v-84q0 -44 -10.5 -70t-26 -40.5t-34 -20t-33.5 -7.5q17 -2 37 -7.5t37 -20t28.5 -39.5t11.5 -66v-125q0 -18 4.5 -28t12.5 -16h-120zM805 496q0 39 -17.5 59.5
t-59.5 20.5h-550v-234h540q39 0 63 17t24 62v75zM490 719h-43l-219 205h75l167 -159l164 159h73z" />
    <glyph glyph-name="rcaron" unicode="&#x159;" horiz-adv-x="975" 
d="M832 0q-8 6 -12.5 16t-4.5 28v125q0 45 -26 62.5t-68 17.5h-543v-249h-121v677h714q85 0 119.5 -39t34.5 -114v-84q0 -44 -10.5 -70t-26 -40.5t-34 -20t-33.5 -7.5q17 -2 37 -7.5t37 -20t28.5 -39.5t11.5 -66v-125q0 -18 4.5 -28t12.5 -16h-120zM805 496q0 39 -17.5 59.5
t-59.5 20.5h-550v-234h540q39 0 63 17t24 62v75zM490 719h-43l-219 205h75l167 -159l164 159h73z" />
    <glyph glyph-name="Sacute" unicode="&#x15a;" horiz-adv-x="943" 
d="M53 0v101h646q42 0 60 20.5t18 60.5v33q0 38 -17.5 59.5t-59.5 21.5h-493q-85 0 -119.5 39.5t-34.5 114.5v74q0 75 34.5 114t119.5 39h674v-101h-631q-42 0 -59.5 -20.5t-17.5 -59.5v-25q0 -39 17.5 -60t59.5 -21h492q85 0 120 -39.5t35 -114.5v-83q0 -75 -35 -114
t-120 -39h-689zM297 719v56l408 149v-73z" />
    <glyph glyph-name="sacute" unicode="&#x15b;" horiz-adv-x="943" 
d="M53 0v101h646q42 0 60 20.5t18 60.5v33q0 38 -17.5 59.5t-59.5 21.5h-493q-85 0 -119.5 39.5t-34.5 114.5v74q0 75 34.5 114t119.5 39h674v-101h-631q-42 0 -59.5 -20.5t-17.5 -59.5v-25q0 -39 17.5 -60t59.5 -21h492q85 0 120 -39.5t35 -114.5v-83q0 -75 -35 -114
t-120 -39h-689zM297 719v56l408 149v-73z" />
    <glyph glyph-name="Scircumflex" unicode="&#x15c;" horiz-adv-x="943" 
d="M53 0v101h646q42 0 60 20.5t18 60.5v33q0 38 -17.5 59.5t-59.5 21.5h-493q-85 0 -119.5 39.5t-34.5 114.5v74q0 75 34.5 114t119.5 39h674v-101h-631q-42 0 -59.5 -20.5t-17.5 -59.5v-25q0 -39 17.5 -60t59.5 -21h492q85 0 120 -39.5t35 -114.5v-83q0 -75 -35 -114
t-120 -39h-689zM656 719l-167 159l-163 -159h-74l217 205h43l219 -205h-75z" />
    <glyph glyph-name="scircumflex" unicode="&#x15d;" horiz-adv-x="943" 
d="M53 0v101h646q42 0 60 20.5t18 60.5v33q0 38 -17.5 59.5t-59.5 21.5h-493q-85 0 -119.5 39.5t-34.5 114.5v74q0 75 34.5 114t119.5 39h674v-101h-631q-42 0 -59.5 -20.5t-17.5 -59.5v-25q0 -39 17.5 -60t59.5 -21h492q85 0 120 -39.5t35 -114.5v-83q0 -75 -35 -114
t-120 -39h-689zM656 719l-167 159l-163 -159h-74l217 205h43l219 -205h-75z" />
    <glyph glyph-name="Scedilla" unicode="&#x15e;" horiz-adv-x="943" 
d="M53 0v101h646q42 0 60 20.5t18 60.5v33q0 38 -17.5 59.5t-59.5 21.5h-493q-85 0 -119.5 39.5t-34.5 114.5v74q0 75 34.5 114t119.5 39h674v-101h-631q-42 0 -59.5 -20.5t-17.5 -59.5v-25q0 -39 17.5 -60t59.5 -21h492q85 0 120 -39.5t35 -114.5v-83q0 -75 -35 -114
t-120 -39h-689zM400 -276l38 230h85l-73 -230h-50z" />
    <glyph glyph-name="scedilla" unicode="&#x15f;" horiz-adv-x="943" 
d="M53 0v101h646q42 0 60 20.5t18 60.5v33q0 38 -17.5 59.5t-59.5 21.5h-493q-85 0 -119.5 39.5t-34.5 114.5v74q0 75 34.5 114t119.5 39h674v-101h-631q-42 0 -59.5 -20.5t-17.5 -59.5v-25q0 -39 17.5 -60t59.5 -21h492q85 0 120 -39.5t35 -114.5v-83q0 -75 -35 -114
t-120 -39h-689zM400 -276l38 230h85l-73 -230h-50z" />
    <glyph glyph-name="Scaron" unicode="&#x160;" horiz-adv-x="943" 
d="M53 0v101h646q42 0 60 20.5t18 60.5v33q0 38 -17.5 59.5t-59.5 21.5h-493q-85 0 -119.5 39.5t-34.5 114.5v74q0 75 34.5 114t119.5 39h674v-101h-631q-42 0 -59.5 -20.5t-17.5 -59.5v-25q0 -39 17.5 -60t59.5 -21h492q85 0 120 -39.5t35 -114.5v-83q0 -75 -35 -114
t-120 -39h-689zM509 719h-43l-219 205h75l167 -159l164 159h73z" />
    <glyph glyph-name="scaron" unicode="&#x161;" horiz-adv-x="943" 
d="M53 0v101h646q42 0 60 20.5t18 60.5v33q0 38 -17.5 59.5t-59.5 21.5h-493q-85 0 -119.5 39.5t-34.5 114.5v74q0 75 34.5 114t119.5 39h674v-101h-631q-42 0 -59.5 -20.5t-17.5 -59.5v-25q0 -39 17.5 -60t59.5 -21h492q85 0 120 -39.5t35 -114.5v-83q0 -75 -35 -114
t-120 -39h-689zM509 719h-43l-219 205h75l167 -159l164 159h73z" />
    <glyph glyph-name="uni0162" unicode="&#x162;" horiz-adv-x="894" 
d="M387 0v566h-363v111h847v-111h-364v-566h-120zM368 -276l38 230h85l-73 -230h-50z" />
    <glyph glyph-name="uni0163" unicode="&#x163;" horiz-adv-x="894" 
d="M387 0v566h-363v111h847v-111h-364v-566h-120zM368 -276l38 230h85l-73 -230h-50z" />
    <glyph glyph-name="Tcaron" unicode="&#x164;" horiz-adv-x="894" 
d="M387 0v566h-363v111h847v-111h-364v-566h-120zM469 719h-43l-219 205h75l167 -159l164 159h73z" />
    <glyph glyph-name="tcaron" unicode="&#x165;" horiz-adv-x="894" 
d="M387 0v566h-363v111h847v-111h-364v-566h-120zM469 719h-43l-219 205h75l167 -159l164 159h73z" />
    <glyph glyph-name="Tbar" unicode="&#x166;" horiz-adv-x="894" 
d="M387 0v255h-168v79h168v232h-363v111h847v-111h-364v-232h167v-79h-167v-255h-120z" />
    <glyph glyph-name="tbar" unicode="&#x167;" horiz-adv-x="894" 
d="M387 0v255h-168v79h168v232h-363v111h847v-111h-364v-232h167v-79h-167v-255h-120z" />
    <glyph glyph-name="Utilde" unicode="&#x168;" horiz-adv-x="960" 
d="M256 0q-203 0 -203 220v457h122v-445q0 -121 107 -121h501v566h119v-677h-646zM245 791v69h470v-69h-470z" />
    <glyph glyph-name="utilde" unicode="&#x169;" horiz-adv-x="960" 
d="M256 0q-203 0 -203 220v457h122v-445q0 -121 107 -121h501v566h119v-677h-646zM245 791v69h470v-69h-470z" />
    <glyph glyph-name="Umacron" unicode="&#x16a;" horiz-adv-x="960" 
d="M256 0q-203 0 -203 220v457h122v-445q0 -121 107 -121h501v566h119v-677h-646zM245 791v69h470v-69h-470z" />
    <glyph glyph-name="umacron" unicode="&#x16b;" horiz-adv-x="960" 
d="M256 0q-203 0 -203 220v457h122v-445q0 -121 107 -121h501v566h119v-677h-646zM245 791v69h470v-69h-470z" />
    <glyph glyph-name="Ubreve" unicode="&#x16c;" horiz-adv-x="960" 
d="M256 0q-203 0 -203 220v457h122v-445q0 -121 107 -121h501v566h119v-677h-646zM689 924q-3 -44 -19.5 -81.5t-44.5 -65t-65 -43t-80 -15.5t-80 15.5t-64.5 43t-44.5 65t-20 81.5h55q3 -36 16 -64.5t33.5 -48.5t47.5 -31t57 -11q31 0 58 11t48 31t33.5 48.5t14.5 64.5h55z
" />
    <glyph glyph-name="ubreve" unicode="&#x16d;" horiz-adv-x="960" 
d="M256 0q-203 0 -203 220v457h122v-445q0 -121 107 -121h501v566h119v-677h-646zM689 924q-3 -44 -19.5 -81.5t-44.5 -65t-65 -43t-80 -15.5t-80 15.5t-64.5 43t-44.5 65t-20 81.5h55q3 -36 16 -64.5t33.5 -48.5t47.5 -31t57 -11q31 0 58 11t48 31t33.5 48.5t14.5 64.5h55z
" />
    <glyph glyph-name="Uring" unicode="&#x16e;" horiz-adv-x="960" 
d="M256 0q-203 0 -203 220v457h122v-445q0 -121 107 -121h501v566h119v-677h-646zM623 806q0 -57 -33 -88.5t-112 -31.5q-78 0 -110 31.5t-32 88.5q0 54 32 86t110 32q79 0 112 -32t33 -86zM578 806q0 36 -22.5 57.5t-77.5 21.5q-54 0 -75.5 -21.5t-21.5 -57.5
q0 -38 21.5 -60t75.5 -22q55 0 77.5 22t22.5 60z" />
    <glyph glyph-name="uring" unicode="&#x16f;" horiz-adv-x="960" 
d="M256 0q-203 0 -203 220v457h122v-445q0 -121 107 -121h501v566h119v-677h-646zM623 806q0 -57 -33 -88.5t-112 -31.5q-78 0 -110 31.5t-32 88.5q0 54 32 86t110 32q79 0 112 -32t33 -86zM578 806q0 36 -22.5 57.5t-77.5 21.5q-54 0 -75.5 -21.5t-21.5 -57.5
q0 -38 21.5 -60t75.5 -22q55 0 77.5 22t22.5 60z" />
    <glyph glyph-name="Uhungarumlaut" unicode="&#x170;" horiz-adv-x="960" 
d="M256 0q-203 0 -203 220v457h122v-445q0 -121 107 -121h501v566h119v-677h-646zM544 720l145 204h65l-152 -204h-58zM317 720l142 204h66l-150 -204h-58z" />
    <glyph glyph-name="uhungarumlaut" unicode="&#x171;" horiz-adv-x="960" 
d="M256 0q-203 0 -203 220v457h122v-445q0 -121 107 -121h501v566h119v-677h-646zM544 720l145 204h65l-152 -204h-58zM317 720l142 204h66l-150 -204h-58z" />
    <glyph glyph-name="Uogonek" unicode="&#x172;" horiz-adv-x="960" 
d="M772 -276q-45 0 -71.5 26t-26.5 62q0 21 11.5 43t36.5 42l129 103h-595q-203 0 -203 220v457h122v-445q0 -121 107 -121h501v566h119v-677l-131 -107q-22 -19 -22 -43q0 -18 12 -30.5t34 -12.5h107v-83h-130z" />
    <glyph glyph-name="uogonek" unicode="&#x173;" horiz-adv-x="960" 
d="M772 -276q-45 0 -71.5 26t-26.5 62q0 21 11.5 43t36.5 42l129 103h-595q-203 0 -203 220v457h122v-445q0 -121 107 -121h501v566h119v-677l-131 -107q-22 -19 -22 -43q0 -18 12 -30.5t34 -12.5h107v-83h-130z" />
    <glyph glyph-name="Wcircumflex" unicode="&#x174;" horiz-adv-x="1186" 
d="M256 0q-203 0 -203 220v457h121v-445q0 -121 107 -121h253v566h121v-566h353v566h121v-677h-873zM757 719l-167 159l-163 -159h-74l217 205h43l219 -205h-75z" />
    <glyph glyph-name="wcircumflex" unicode="&#x175;" horiz-adv-x="1186" 
d="M256 0q-203 0 -203 220v457h121v-445q0 -121 107 -121h253v566h121v-566h353v566h121v-677h-873zM757 719l-167 159l-163 -159h-74l217 205h43l219 -205h-75z" />
    <glyph glyph-name="Ycircumflex" unicode="&#x176;" horiz-adv-x="1037" 
d="M460 0v231l-448 446h156l354 -353l353 353h150l-444 -448v-229h-121zM686 719l-167 159l-163 -159h-74l217 205h43l219 -205h-75z" />
    <glyph glyph-name="ycircumflex" unicode="&#x177;" horiz-adv-x="1037" 
d="M460 0v231l-448 446h156l354 -353l353 353h150l-444 -448v-229h-121zM686 719l-167 159l-163 -159h-74l217 205h43l219 -205h-75z" />
    <glyph glyph-name="Ydieresis" unicode="&#x178;" horiz-adv-x="1037" 
d="M460 0v231l-448 446h156l354 -353l353 353h150l-444 -448v-229h-121zM617 735v156h90v-156h-90zM335 735v156h90v-156h-90z" />
    <glyph glyph-name="Zacute" unicode="&#x179;" horiz-adv-x="916" 
d="M47 0v84l636 495h-636v98h825v-84l-617 -497h617v-96h-825zM284 719v56l408 149v-73z" />
    <glyph glyph-name="zacute" unicode="&#x17a;" horiz-adv-x="916" 
d="M47 0v84l636 495h-636v98h825v-84l-617 -497h617v-96h-825zM284 719v56l408 149v-73z" />
    <glyph glyph-name="Zdotaccent" unicode="&#x17b;" horiz-adv-x="916" 
d="M47 0v84l636 495h-636v98h825v-84l-617 -497h617v-96h-825zM413 735v156h90v-156h-90z" />
    <glyph glyph-name="zdotaccent" unicode="&#x17c;" horiz-adv-x="916" 
d="M47 0v84l636 495h-636v98h825v-84l-617 -497h617v-96h-825zM413 735v156h90v-156h-90z" />
    <glyph glyph-name="Zcaron" unicode="&#x17d;" horiz-adv-x="916" 
d="M47 0v84l636 495h-636v98h825v-84l-617 -497h617v-96h-825zM470 719h-43l-219 205h75l167 -159l164 159h73z" />
    <glyph glyph-name="zcaron" unicode="&#x17e;" horiz-adv-x="916" 
d="M47 0v84l636 495h-636v98h825v-84l-617 -497h617v-96h-825zM470 719h-43l-219 205h75l167 -159l164 159h73z" />
    <glyph glyph-name="AEacute" unicode="&#x1fc;" horiz-adv-x="1718" 
d="M207 0q-85 0 -119.5 39t-34.5 114v87q0 75 34.5 114t119.5 39h583v52q0 121 -108 121h-612v111h600q133 0 178 -93q12 46 48 69.5t102 23.5h512q85 0 119.5 -39t34.5 -114v-91q0 -75 -34.5 -114t-119.5 -39h-584v-48q0 -60 26 -90.5t83 -30.5h612v-111h-600
q-127 0 -174 80v-80h-666zM1544 496q0 39 -17.5 59.5t-59.5 20.5h-463q-42 0 -60 -20.5t-18 -59.5v-122h541q42 0 59.5 21t17.5 60v41zM790 300h-540q-42 0 -59.5 -20.5t-17.5 -59.5v-38q0 -40 17.5 -60.5t59.5 -20.5h540v199zM674 719v56l408 149v-73z" />
    <glyph glyph-name="aeacute" unicode="&#x1fd;" horiz-adv-x="1718" 
d="M207 0q-85 0 -119.5 39t-34.5 114v87q0 75 34.5 114t119.5 39h583v52q0 121 -108 121h-612v111h600q133 0 178 -93q12 46 48 69.5t102 23.5h512q85 0 119.5 -39t34.5 -114v-91q0 -75 -34.5 -114t-119.5 -39h-584v-48q0 -60 26 -90.5t83 -30.5h612v-111h-600
q-127 0 -174 80v-80h-666zM1544 496q0 39 -17.5 59.5t-59.5 20.5h-463q-42 0 -60 -20.5t-18 -59.5v-122h541q42 0 59.5 21t17.5 60v41zM790 300h-540q-42 0 -59.5 -20.5t-17.5 -59.5v-38q0 -40 17.5 -60.5t59.5 -20.5h540v199zM674 719v56l408 149v-73z" />
    <glyph glyph-name="Oslashacute" unicode="&#x1fe;" 
d="M315 0l-42 -71h-61l42 71q-106 0 -155.5 54t-49.5 166v237q0 112 49.5 166t155.5 54h404l43 72h61l-43 -72q106 -1 154.5 -55t48.5 -165v-237q0 -112 -49 -166t-155 -54h-403zM170 232q0 -60 26 -90.5t83 -30.5h41l272 455h-313q-57 0 -83 -30t-26 -91v-213zM801 445
q0 61 -25.5 91t-82.5 30h-40l-272 -455h312q57 0 82.5 30.5t25.5 90.5v213zM312 719v56l408 149v-73z" />
    <glyph glyph-name="oslashacute" unicode="&#x1ff;" 
d="M315 0l-42 -71h-61l42 71q-106 0 -155.5 54t-49.5 166v237q0 112 49.5 166t155.5 54h404l43 72h61l-43 -72q106 -1 154.5 -55t48.5 -165v-237q0 -112 -49 -166t-155 -54h-403zM170 232q0 -60 26 -90.5t83 -30.5h41l272 455h-313q-57 0 -83 -30t-26 -91v-213zM801 445
q0 61 -25.5 91t-82.5 30h-40l-272 -455h312q57 0 82.5 30.5t25.5 90.5v213zM312 719v56l408 149v-73z" />
    <glyph glyph-name="uni0218" unicode="&#x218;" horiz-adv-x="943" 
d="M53 0v101h646q42 0 60 20.5t18 60.5v33q0 38 -17.5 59.5t-59.5 21.5h-493q-85 0 -119.5 39.5t-34.5 114.5v74q0 75 34.5 114t119.5 39h674v-101h-631q-42 0 -59.5 -20.5t-17.5 -59.5v-25q0 -39 17.5 -60t59.5 -21h492q85 0 120 -39.5t35 -114.5v-83q0 -75 -35 -114
t-120 -39h-689zM400 -276l38 230h85l-73 -230h-50z" />
    <glyph glyph-name="uni0219" unicode="&#x219;" horiz-adv-x="943" 
d="M53 0v101h646q42 0 60 20.5t18 60.5v33q0 38 -17.5 59.5t-59.5 21.5h-493q-85 0 -119.5 39.5t-34.5 114.5v74q0 75 34.5 114t119.5 39h674v-101h-631q-42 0 -59.5 -20.5t-17.5 -59.5v-25q0 -39 17.5 -60t59.5 -21h492q85 0 120 -39.5t35 -114.5v-83q0 -75 -35 -114
t-120 -39h-689zM400 -276l38 230h85l-73 -230h-50z" />
    <glyph glyph-name="uni021A" unicode="&#x21a;" horiz-adv-x="894" 
d="M387 0v566h-363v111h847v-111h-364v-566h-120zM368 -276l38 230h85l-73 -230h-50z" />
    <glyph glyph-name="uni021B" unicode="&#x21b;" horiz-adv-x="894" 
d="M387 0v566h-363v111h847v-111h-364v-566h-120zM368 -276l38 230h85l-73 -230h-50z" />
    <glyph glyph-name="circumflex" unicode="&#x2c6;" horiz-adv-x="593" 
d="M461 719l-167 159l-163 -159h-74l217 205h43l219 -205h-75z" />
    <glyph glyph-name="caron" unicode="&#x2c7;" horiz-adv-x="593" 
d="M319 719h-43l-219 205h75l167 -159l164 159h73z" />
    <glyph glyph-name="breve" unicode="&#x2d8;" horiz-adv-x="533" 
d="M475 924q-3 -44 -19.5 -81.5t-44.5 -65t-65 -43t-80 -15.5t-80 15.5t-64.5 43t-44.5 65t-20 81.5h55q3 -36 16 -64.5t33.5 -48.5t47.5 -31t57 -11q31 0 58 11t48 31t33.5 48.5t14.5 64.5h55z" />
    <glyph glyph-name="dotaccent" unicode="&#x2d9;" horiz-adv-x="204" 
d="M57 735v156h90v-156h-90z" />
    <glyph glyph-name="ring" unicode="&#x2da;" horiz-adv-x="402" 
d="M344 806q0 -57 -33 -88.5t-112 -31.5q-78 0 -110 31.5t-32 88.5q0 54 32 86t110 32q79 0 112 -32t33 -86zM299 806q0 36 -22.5 57.5t-77.5 21.5q-54 0 -75.5 -21.5t-21.5 -57.5q0 -38 21.5 -60t75.5 -22q55 0 77.5 22t22.5 60z" />
    <glyph glyph-name="ogonek" unicode="&#x2db;" horiz-adv-x="342" 
d="M155 -276q-45 0 -71.5 26t-26.5 62q0 21 11.5 43t36.5 42l129 103h51l-131 -107q-22 -19 -22 -43q0 -18 12 -30.5t34 -12.5h107v-83h-130z" />
    <glyph glyph-name="tilde" unicode="&#x2dc;" horiz-adv-x="583" 
d="M57 791v69h470v-69h-470z" />
    <glyph glyph-name="hungarumlaut" unicode="&#x2dd;" horiz-adv-x="551" 
d="M284 720l145 204h65l-152 -204h-58zM57 720l142 204h66l-150 -204h-58z" />
    <glyph glyph-name="uni0326" unicode="&#x326;" horiz-adv-x="238" 
d="M57 -276l38 230h85l-73 -230h-50z" />
    <glyph glyph-name="Wgrave" unicode="&#x1e80;" horiz-adv-x="1186" 
d="M256 0q-203 0 -203 220v457h121v-445q0 -121 107 -121h253v566h121v-566h353v566h121v-677h-873zM359 851v73l408 -149v-56z" />
    <glyph glyph-name="wgrave" unicode="&#x1e81;" horiz-adv-x="1186" 
d="M256 0q-203 0 -203 220v457h121v-445q0 -121 107 -121h253v566h121v-566h353v566h121v-677h-873zM359 851v73l408 -149v-56z" />
    <glyph glyph-name="Wacute" unicode="&#x1e82;" horiz-adv-x="1186" 
d="M256 0q-203 0 -203 220v457h121v-445q0 -121 107 -121h253v566h121v-566h353v566h121v-677h-873zM419 719v56l408 149v-73z" />
    <glyph glyph-name="wacute" unicode="&#x1e83;" horiz-adv-x="1186" 
d="M256 0q-203 0 -203 220v457h121v-445q0 -121 107 -121h253v566h121v-566h353v566h121v-677h-873zM419 719v56l408 149v-73z" />
    <glyph glyph-name="Wdieresis" unicode="&#x1e84;" horiz-adv-x="1186" 
d="M256 0q-203 0 -203 220v457h121v-445q0 -121 107 -121h253v566h121v-566h353v566h121v-677h-873zM689 735v156h90v-156h-90zM407 735v156h90v-156h-90z" />
    <glyph glyph-name="wdieresis" unicode="&#x1e85;" horiz-adv-x="1186" 
d="M256 0q-203 0 -203 220v457h121v-445q0 -121 107 -121h253v566h121v-566h353v566h121v-677h-873zM689 735v156h90v-156h-90zM407 735v156h90v-156h-90z" />
    <glyph glyph-name="Ygrave" unicode="&#x1ef2;" horiz-adv-x="1037" 
d="M460 0v231l-448 446h156l354 -353l353 353h150l-444 -448v-229h-121zM288 851v73l408 -149v-56z" />
    <glyph glyph-name="ygrave" unicode="&#x1ef3;" horiz-adv-x="1037" 
d="M460 0v231l-448 446h156l354 -353l353 353h150l-444 -448v-229h-121zM288 851v73l408 -149v-56z" />
    <glyph glyph-name="endash" unicode="&#x2013;" horiz-adv-x="675" 
d="M29 295v79h618v-79h-618z" />
    <glyph glyph-name="emdash" unicode="&#x2014;" horiz-adv-x="1120" 
d="M29 295v79h1063v-79h-1063z" />
    <glyph glyph-name="quoteleft" unicode="&#x2018;" horiz-adv-x="240" 
d="M131 371l-74 306h87l38 -306h-51z" />
    <glyph glyph-name="quoteright" unicode="&#x2019;" horiz-adv-x="240" 
d="M57 371l39 306h86l-74 -306h-51z" />
    <glyph glyph-name="quotesinglbase" unicode="&#x201a;" horiz-adv-x="240" 
d="M57 -93l39 306h86l-74 -306h-51z" />
    <glyph glyph-name="quotedblleft" unicode="&#x201c;" horiz-adv-x="424" 
d="M317 371l-75 306h87l39 -306h-51zM131 371l-74 306h87l38 -306h-51z" />
    <glyph glyph-name="quotedblright" unicode="&#x201d;" horiz-adv-x="424" 
d="M57 371l39 306h86l-74 -306h-51zM242 371l39 306h87l-75 -306h-51z" />
    <glyph glyph-name="quotedblbase" unicode="&#x201e;" horiz-adv-x="424" 
d="M57 -93l39 306h86l-74 -306h-51zM242 -93l39 306h87l-75 -306h-51z" />
    <glyph glyph-name="dagger" unicode="&#x2020;" horiz-adv-x="499" 
d="M223 -1v503h-166v53h166v123h61v-123h159v-53h-159v-503h-61z" />
    <glyph glyph-name="daggerdbl" unicode="&#x2021;" horiz-adv-x="499" 
d="M284 121v-122h-61v122h-166v54h166v327h-166v53h166v123h61v-123h159v-53h-159v-327h159v-54h-159z" />
    <glyph glyph-name="bullet" unicode="&#x2022;" horiz-adv-x="314" 
d="M256 339q0 -42 -29 -70.5t-71 -28.5t-70.5 28.5t-28.5 70.5q0 21 7.5 39.5t21 32t31.5 21.5t39 8t39 -8t31.5 -21.5t21.5 -32t8 -39.5z" />
    <glyph glyph-name="ellipsis" unicode="&#x2026;" horiz-adv-x="1150" 
d="M57 0v178h116v-178h-116zM517 0v178h116v-178h-116zM977 0v178h116v-178h-116z" />
    <glyph glyph-name="perthousand" unicode="&#x2030;" horiz-adv-x="1477" 
d="M152 349q-103 0 -103 110v118q0 110 103 110h215q54 0 78 -26.5t24 -83.5v-118q0 -57 -24 -83.5t-78 -26.5h-215zM409 571q0 61 -54 61h-191q-54 0 -54 -61v-106q0 -61 54 -61h191q54 0 54 61v106zM177 -31l588 743h67l-589 -743h-66zM641 -10q-103 0 -103 110v118
q0 110 103 110h215q54 0 78 -26.5t24 -83.5v-118q0 -57 -24 -83.5t-78 -26.5h-215zM898 212q0 61 -54 61h-191q-54 0 -54 -61v-106q0 -61 54 -61h191q54 0 54 61v106zM1110 -10q-103 0 -103 110v118q0 110 103 110h215q54 0 78 -26.5t24 -83.5v-118q0 -57 -24 -83.5
t-78 -26.5h-215zM1367 212q0 61 -54 61h-191q-54 0 -54 -61v-106q0 -61 54 -61h191q54 0 54 61v106z" />
    <glyph glyph-name="guilsinglleft" unicode="&#x2039;" horiz-adv-x="285" 
d="M29 319l177 231l50 -45l-145 -186l145 -188l-50 -44z" />
    <glyph glyph-name="guilsinglright" unicode="&#x203a;" horiz-adv-x="283" 
d="M29 131l145 188l-145 186l50 45l176 -231l-176 -232z" />
    <glyph glyph-name="fraction" unicode="&#x2044;" horiz-adv-x="150" 
d="M-252 -31l588 743h67l-589 -743h-66z" />
    <glyph glyph-name="uni2070" unicode="&#x2070;" horiz-adv-x="499" 
d="M142 349q-103 0 -103 110v118q0 110 103 110h215q54 0 78 -26.5t24 -83.5v-118q0 -57 -24 -83.5t-78 -26.5h-215zM399 571q0 61 -54 61h-191q-54 0 -54 -61v-106q0 -61 54 -61h191q54 0 54 61v106z" />
    <glyph glyph-name="uni2074" unicode="&#x2074;" horiz-adv-x="468" 
d="M348 349v66h-316v46l294 226h80v-228h33v-44h-33v-66h-58zM348 641l-240 -182h240v182z" />
    <glyph glyph-name="uni2075" unicode="&#x2075;" horiz-adv-x="486" 
d="M43 349v50h302q21 0 30 14.5t9 34.5v9q0 19 -9 29.5t-30 10.5h-300v190h390v-50h-333v-93h264q43 0 60.5 -19.5t17.5 -57.5v-42q0 -37 -17.5 -56.5t-60.5 -19.5h-323z" />
    <glyph glyph-name="uni2076" unicode="&#x2076;" horiz-adv-x="496" 
d="M395 454q0 20 -9 30t-30 10h-256v-54q0 -20 9 -30.5t30 -10.5h217q21 0 30 10.5t9 30.5v14zM117 349q-43 0 -60.5 19.5t-17.5 56.5v152q0 110 103 110h303v-55h-291q-54 0 -54 -61v-30h278q42 0 59.5 -19.5t17.5 -57.5v-39q0 -37 -17.5 -56.5t-59.5 -19.5h-261z" />
    <glyph glyph-name="uni2077" unicode="&#x2077;" horiz-adv-x="438" 
d="M99 349l230 289h-297v49h371v-45l-229 -293h-75z" />
    <glyph glyph-name="uni2078" unicode="&#x2078;" horiz-adv-x="498" 
d="M117 349q-43 0 -60 19.5t-17 56.5v29q0 19 5.5 31.5t13.5 20t17.5 11t18.5 4.5q-8 1 -16.5 4t-16 10t-12.5 20t-5 34v22q0 37 17 56.5t60 19.5h254q42 0 59.5 -19.5t17.5 -56.5v-22q0 -21 -5.5 -34t-13 -20t-16.5 -10t-16 -4q9 -1 18.5 -4.5t18 -11t14 -20t5.5 -31.5v-29
q0 -37 -17.5 -56.5t-59.5 -19.5h-264zM145 497q-20 0 -32.5 -8.5t-12.5 -30.5v-18q0 -20 8.5 -30.5t29.5 -10.5h221q21 0 30 10.5t9 30.5v18q0 22 -13 30.5t-33 8.5h-207zM143 637q-21 0 -29.5 -10t-8.5 -30v-13q0 -23 11.5 -31.5t31.5 -8.5h201q20 0 32 8.5t12 31.5v13
q0 20 -9 30t-30 10h-211z" />
    <glyph glyph-name="uni2079" unicode="&#x2079;" horiz-adv-x="497" 
d="M101 583q0 -20 9 -30t30 -10h256v53q0 20 -9 30.5t-30 10.5h-217q-21 0 -30 -10.5t-9 -30.5v-13zM378 687q43 0 60.5 -19.5t17.5 -56.5v-152q0 -57 -24 -83.5t-78 -26.5h-288v55h275q55 0 55 61v31h-278q-42 0 -59.5 19.5t-17.5 57.5v38q0 37 17.5 56.5t59.5 19.5h260z
" />
    <glyph glyph-name="uni2080" unicode="&#x2080;" horiz-adv-x="499" 
d="M142 -10q-103 0 -103 110v118q0 110 103 110h215q54 0 78 -26.5t24 -83.5v-118q0 -57 -24 -83.5t-78 -26.5h-215zM399 212q0 61 -54 61h-191q-54 0 -54 -61v-106q0 -61 54 -61h191q54 0 54 61v106z" />
    <glyph glyph-name="uni2081" unicode="&#x2081;" horiz-adv-x="231" 
d="M127 -10v237q0 46 -45 46h-53v55h66q92 0 92 -95v-243h-60z" />
    <glyph glyph-name="uni2082" unicode="&#x2082;" horiz-adv-x="486" 
d="M43 -10v114q0 38 17 57.5t60 19.5h225q21 0 30 10.5t9 30.5v16q0 20 -9 30t-30 10h-292v50h313q43 0 60.5 -19.5t17.5 -56.5v-29q0 -37 -17.5 -63t-60.5 -26h-225q-21 0 -29.5 -10.5t-8.5 -29.5v-54h341v-50h-401z" />
    <glyph glyph-name="uni2083" unicode="&#x2083;" horiz-adv-x="470" 
d="M36 -10v50h291q21 0 30 10.5t9 30.5v18q0 22 -13 30.5t-33 8.5h-273v47h270q20 0 32 8.5t12 31.5v13q0 20 -9 30t-30 10h-285v50h307q42 0 59.5 -19.5t17.5 -56.5v-22q0 -21 -5.5 -34t-13 -20t-16.5 -10t-16 -4q9 -1 18.5 -4.5t18 -11t14 -20t5.5 -31.5v-29
q0 -37 -17.5 -56.5t-59.5 -19.5h-313z" />
    <glyph glyph-name="uni2084" unicode="&#x2084;" horiz-adv-x="468" 
d="M348 -10v66h-316v46l294 226h80v-228h33v-44h-33v-66h-58zM348 282l-240 -182h240v182z" />
    <glyph glyph-name="uni2085" unicode="&#x2085;" horiz-adv-x="486" 
d="M43 -10v50h302q21 0 30 14.5t9 34.5v9q0 19 -9 29.5t-30 10.5h-300v190h390v-50h-333v-93h264q43 0 60.5 -19.5t17.5 -57.5v-42q0 -37 -17.5 -56.5t-60.5 -19.5h-323z" />
    <glyph glyph-name="uni2086" unicode="&#x2086;" horiz-adv-x="496" 
d="M395 95q0 20 -9 30t-30 10h-256v-54q0 -20 9 -30.5t30 -10.5h217q21 0 30 10.5t9 30.5v14zM117 -10q-43 0 -60.5 19.5t-17.5 56.5v152q0 110 103 110h303v-55h-291q-54 0 -54 -61v-30h278q42 0 59.5 -19.5t17.5 -57.5v-39q0 -37 -17.5 -56.5t-59.5 -19.5h-261z" />
    <glyph glyph-name="uni2087" unicode="&#x2087;" horiz-adv-x="438" 
d="M99 -10l230 289h-297v49h371v-45l-229 -293h-75z" />
    <glyph glyph-name="uni2088" unicode="&#x2088;" horiz-adv-x="498" 
d="M117 -10q-43 0 -60 19.5t-17 56.5v29q0 19 5.5 31.5t13.5 20t17.5 11t18.5 4.5q-8 1 -16.5 4t-16 10t-12.5 20t-5 34v22q0 37 17 56.5t60 19.5h254q42 0 59.5 -19.5t17.5 -56.5v-22q0 -21 -5.5 -34t-13 -20t-16.5 -10t-16 -4q9 -1 18.5 -4.5t18 -11t14 -20t5.5 -31.5v-29
q0 -37 -17.5 -56.5t-59.5 -19.5h-264zM145 138q-20 0 -32.5 -8.5t-12.5 -30.5v-18q0 -20 8.5 -30.5t29.5 -10.5h221q21 0 30 10.5t9 30.5v18q0 22 -13 30.5t-33 8.5h-207zM143 278q-21 0 -29.5 -10t-8.5 -30v-13q0 -23 11.5 -31.5t31.5 -8.5h201q20 0 32 8.5t12 31.5v13
q0 20 -9 30t-30 10h-211z" />
    <glyph glyph-name="uni2089" unicode="&#x2089;" horiz-adv-x="497" 
d="M101 224q0 -20 9 -30t30 -10h256v53q0 20 -9 30.5t-30 10.5h-217q-21 0 -30 -10.5t-9 -30.5v-13zM378 328q43 0 60.5 -19.5t17.5 -56.5v-152q0 -57 -24 -83.5t-78 -26.5h-288v55h275q55 0 55 61v31h-278q-42 0 -59.5 19.5t-17.5 57.5v38q0 37 17.5 56.5t59.5 19.5h260z
" />
    <glyph glyph-name="Euro" unicode="&#x20ac;" horiz-adv-x="753" 
d="M298 0q-106 0 -154.5 54t-48.5 166v51h-64l10 33h54v70h-64l10 33h54v50q0 112 48.5 166t154.5 54h421l-50 -111h-346q-57 0 -82.5 -30t-25.5 -91v-38h387l-14 -33h-373v-70h343l-14 -33h-329v-39q0 -60 25.5 -90.5t82.5 -30.5h347v-111h-372z" />
    <glyph glyph-name="trademark" unicode="&#x2122;" horiz-adv-x="688" 
d="M122 349v277h-76v51h199v-51h-74v-277h-49zM579 349v282l-81 -282h-76l-84 282v-282h-53v328h99l77 -283l76 283h95v-328h-53z" />
    <glyph glyph-name="onethird" unicode="&#x2153;" horiz-adv-x="917" 
d="M197 349v237q0 46 -45 46h-53v55h66q92 0 92 -95v-243h-60zM49 -31l588 743h67l-589 -743h-66zM477 -10v50h291q21 0 30 10.5t9 30.5v18q0 22 -13 30.5t-33 8.5h-273v47h270q20 0 32 8.5t12 31.5v13q0 20 -9 30t-30 10h-285v50h307q42 0 59.5 -19.5t17.5 -56.5v-22
q0 -21 -5.5 -34t-13 -20t-16.5 -10t-16 -4q9 -1 18.5 -4.5t18 -11t14 -20t5.5 -31.5v-29q0 -37 -17.5 -56.5t-59.5 -19.5h-313z" />
    <glyph glyph-name="twothirds" unicode="&#x2154;" horiz-adv-x="1028" 
d="M49 349v114q0 38 17 57.5t60 19.5h225q21 0 30 10.5t9 30.5v16q0 20 -9 30t-30 10h-292v50h313q43 0 60.5 -19.5t17.5 -56.5v-29q0 -37 -17.5 -63t-60.5 -26h-225q-21 0 -29.5 -10.5t-8.5 -29.5v-54h341v-50h-401zM190 -31l588 743h67l-589 -743h-66zM588 -10v50h291
q21 0 30 10.5t9 30.5v18q0 22 -13 30.5t-33 8.5h-273v47h270q20 0 32 8.5t12 31.5v13q0 20 -9 30t-30 10h-285v50h307q42 0 59.5 -19.5t17.5 -56.5v-22q0 -21 -5.5 -34t-13 -20t-16.5 -10t-16 -4q9 -1 18.5 -4.5t18 -11t14 -20t5.5 -31.5v-29q0 -37 -17.5 -56.5t-59.5 -19.5
h-313z" />
    <glyph glyph-name="oneeighth" unicode="&#x215b;" horiz-adv-x="939" 
d="M197 349v237q0 46 -45 46h-53v55h66q92 0 92 -95v-243h-60zM49 -31l588 743h67l-589 -743h-66zM548 -10q-43 0 -60 19.5t-17 56.5v29q0 19 5.5 31.5t13.5 20t17.5 11t18.5 4.5q-8 1 -16.5 4t-16 10t-12.5 20t-5 34v22q0 37 17 56.5t60 19.5h254q42 0 59.5 -19.5
t17.5 -56.5v-22q0 -21 -5.5 -34t-13 -20t-16.5 -10t-16 -4q9 -1 18.5 -4.5t18 -11t14 -20t5.5 -31.5v-29q0 -37 -17.5 -56.5t-59.5 -19.5h-264zM576 138q-20 0 -32.5 -8.5t-12.5 -30.5v-18q0 -20 8.5 -30.5t29.5 -10.5h221q21 0 30 10.5t9 30.5v18q0 22 -13 30.5t-33 8.5
h-207zM574 278q-21 0 -29.5 -10t-8.5 -30v-13q0 -23 11.5 -31.5t31.5 -8.5h201q20 0 32 8.5t12 31.5v13q0 20 -9 30t-30 10h-211z" />
    <glyph glyph-name="threeeighths" unicode="&#x215c;" horiz-adv-x="1021" 
d="M49 349v50h291q21 0 30 10.5t9 30.5v18q0 22 -13 30.5t-33 8.5h-273v47h270q20 0 32 8.5t12 31.5v13q0 20 -9 30t-30 10h-285v50h307q42 0 59.5 -19.5t17.5 -56.5v-22q0 -21 -5.5 -34t-13 -20t-16.5 -10t-16 -4q9 -1 18.5 -4.5t18 -11t14 -20t5.5 -31.5v-29
q0 -37 -17.5 -56.5t-59.5 -19.5h-313zM171 -31l588 743h67l-589 -743h-66zM630 -10q-43 0 -60 19.5t-17 56.5v29q0 19 5.5 31.5t13.5 20t17.5 11t18.5 4.5q-8 1 -16.5 4t-16 10t-12.5 20t-5 34v22q0 37 17 56.5t60 19.5h254q42 0 59.5 -19.5t17.5 -56.5v-22q0 -21 -5.5 -34
t-13 -20t-16.5 -10t-16 -4q9 -1 18.5 -4.5t18 -11t14 -20t5.5 -31.5v-29q0 -37 -17.5 -56.5t-59.5 -19.5h-264zM658 138q-20 0 -32.5 -8.5t-12.5 -30.5v-18q0 -20 8.5 -30.5t29.5 -10.5h221q21 0 30 10.5t9 30.5v18q0 22 -13 30.5t-33 8.5h-207zM656 278q-21 0 -29.5 -10
t-8.5 -30v-13q0 -23 11.5 -31.5t31.5 -8.5h201q20 0 32 8.5t12 31.5v13q0 20 -9 30t-30 10h-211z" />
    <glyph glyph-name="fiveeighths" unicode="&#x215d;" horiz-adv-x="1030" 
d="M49 349v50h302q21 0 30 14.5t9 34.5v9q0 19 -9 29.5t-30 10.5h-300v190h390v-50h-333v-93h264q43 0 60.5 -19.5t17.5 -57.5v-42q0 -37 -17.5 -56.5t-60.5 -19.5h-323zM180 -31l588 743h67l-589 -743h-66zM639 -10q-43 0 -60 19.5t-17 56.5v29q0 19 5.5 31.5t13.5 20
t17.5 11t18.5 4.5q-8 1 -16.5 4t-16 10t-12.5 20t-5 34v22q0 37 17 56.5t60 19.5h254q42 0 59.5 -19.5t17.5 -56.5v-22q0 -21 -5.5 -34t-13 -20t-16.5 -10t-16 -4q9 -1 18.5 -4.5t18 -11t14 -20t5.5 -31.5v-29q0 -37 -17.5 -56.5t-59.5 -19.5h-264zM667 138
q-20 0 -32.5 -8.5t-12.5 -30.5v-18q0 -20 8.5 -30.5t29.5 -10.5h221q21 0 30 10.5t9 30.5v18q0 22 -13 30.5t-33 8.5h-207zM665 278q-21 0 -29.5 -10t-8.5 -30v-13q0 -23 11.5 -31.5t31.5 -8.5h201q20 0 32 8.5t12 31.5v13q0 20 -9 30t-30 10h-211z" />
    <glyph glyph-name="seveneighths" unicode="&#x215e;" horiz-adv-x="983" 
d="M116 349l230 289h-297v49h371v-45l-229 -293h-75zM83 -31l588 743h67l-589 -743h-66zM592 -10q-43 0 -60 19.5t-17 56.5v29q0 19 5.5 31.5t13.5 20t17.5 11t18.5 4.5q-8 1 -16.5 4t-16 10t-12.5 20t-5 34v22q0 37 17 56.5t60 19.5h254q42 0 59.5 -19.5t17.5 -56.5v-22
q0 -21 -5.5 -34t-13 -20t-16.5 -10t-16 -4q9 -1 18.5 -4.5t18 -11t14 -20t5.5 -31.5v-29q0 -37 -17.5 -56.5t-59.5 -19.5h-264zM620 138q-20 0 -32.5 -8.5t-12.5 -30.5v-18q0 -20 8.5 -30.5t29.5 -10.5h221q21 0 30 10.5t9 30.5v18q0 22 -13 30.5t-33 8.5h-207zM618 278
q-21 0 -29.5 -10t-8.5 -30v-13q0 -23 11.5 -31.5t31.5 -8.5h201q20 0 32 8.5t12 31.5v13q0 20 -9 30t-30 10h-211z" />
    <glyph glyph-name="minus" unicode="&#x2212;" horiz-adv-x="623" 
d="M57 316v67h509v-67h-509z" />
    <glyph glyph-name="approxequal" unicode="&#x2248;" horiz-adv-x="623" 
d="M566 217q-53 -57 -145 -57q-30 0 -58 12t-56 26.5t-57 26.5t-61 12q-43 0 -73.5 -15t-58.5 -50v80q20 23 50.5 36.5t78.5 13.5q36 0 67 -12t59.5 -26.5t55.5 -26.5t56 -12q45 0 78.5 17.5t63.5 62.5v-88zM566 456q-53 -57 -145 -57q-30 0 -58 12t-56 26.5t-57 26.5
t-61 12q-43 0 -73.5 -15t-58.5 -50v80q20 23 50.5 36.5t78.5 13.5q36 0 67 -12t59.5 -26.5t55.5 -26.5t56 -12q45 0 78.5 17.5t63.5 62.5v-88z" />
    <glyph glyph-name="notequal" unicode="&#x2260;" horiz-adv-x="623" 
d="M411 425l-121 -153h276v-67h-329l-187 -236h-66l187 236h-114v67h167l121 153h-288v68h342l173 219h67l-174 -219h101v-68h-155z" />
    <glyph glyph-name="lessequal" unicode="&#x2264;" horiz-adv-x="623" 
d="M57 305v51l509 231v-74l-403 -182l403 -181v-74zM57 -21v67h509v-67h-509z" />
    <glyph glyph-name="greaterequal" unicode="&#x2265;" horiz-adv-x="623" 
d="M57 76v74l403 181l-403 182v74l509 -231v-51zM57 -21v67h509v-67h-509z" />
    <glyph glyph-name="uniE000" unicode="&#xe000;" horiz-adv-x="983" 
d="M74 0v111h627q108 0 108 121v59h-598q-86 0 -120 39.5t-34 113.5v233h120v-211q0 -39 17.5 -60t59.5 -21h555v292h121v-457q0 -112 -49 -166t-155 -54h-652z" />
    <glyph glyph-name="uniE002" unicode="&#xe002;" horiz-adv-x="970" 
d="M203 0q-85 0 -119.5 39t-34.5 114v57q0 40 11.5 65.5t28.5 40t37 20.5t37 8q-15 1 -33.5 6.5t-34 20t-26 41t-10.5 69.5v43q0 75 34.5 114t119.5 39h700v-101h-657q-42 0 -59.5 -20.5t-17.5 -59.5v-26q0 -45 24 -62.5t63 -17.5h627v-93h-633q-42 0 -66.5 -17.5
t-24.5 -60.5v-37q0 -40 17.5 -60.5t59.5 -20.5h669v-101h-712z" />
    <glyph glyph-name="uniE003" unicode="&#xe003;" horiz-adv-x="1037" 
d="M775 198h-521l-103 -198h-139l364 677h278l371 -677h-144zM300 285h429l-157 294h-118z" />
    <glyph glyph-name="uniF8FF" unicode="&#xf8ff;" horiz-adv-x="230" 
 />
    <glyph glyph-name="glyph391" horiz-adv-x="146" 
 />
    </font>
</defs>
</svg>
